CzTorrent - 1. CZ Free Torrent Tracker - Červená Karkulka / Red Riding Hood (2011)

Menu

CEX.IO

Statistika

Uživatelé Torrenty Seedeři Leecheři Peery Seed/Leech Přenesená data
204937 | 207019 117310 | 117339 830545 | 1278663 38460 | 59026 869000 | 1337461 2160% 651.5 PiB

Login

pbmining.com

Obsah

Detaily torrentu

Detaily torrentu
Název:
Červená Karkulka / Red Riding Hood (2011)
Kategorie:
Filmy - DVD
Přidán:
25.6.2011 21:53:49
Zkontrolován:
25.6.2011 21:53:49
Zdraví 100%
Provozovatel serveru nenese žádnou zodpovědnost za nahrané soubory. Odpovědnost nese vždy uploader souboru.
   


 Red.Riding.Hood.2011.DVD5.CZ-TiELK

Rok vydání: 2011
Jazyk: EN , CZ
Titulky: EN
Menu a Bonusy: NE / NE
Kvalita zvuku a videa: DD 5.1 CZ - 448 Kbps | DD 5.1 EN - 448 Kbps| 720 x 576 - 6638 Kbps
Odkaz na CSFD: http://www.csfd.cz/film/283223-cervena-karkulka/
Délka: 1 h.  40 min.
Žánr: Drama / Thriller

image

Režie:
Catherine Hardwicke

Hudba:
Brian Reitzell

Hrají:
Amanda Seyfried, Gary Oldman, Lukas Haas, Virginia Madsen, Billy Burke, Michael Shanks, Julie Christie, Shiloh Fernandez, Michael Hogan, Darren Shahlavi, Lauro Chartrand, Max Irons, Kacey Rohl

Popis:
Romantický fantasy thriller. Ve filmu „Červená Karkulka“ hraje Amanda Seyfried mladou a krásnouValerii, která se zmítá mezi dvěma muži. Zamilovala se do hloubavého samotážePetera (Shiloh Fernandez), avšak její rodiče dohodli sňatek se zámožným Henrym(Max Irons). Valerie a Peter nechtějí ztratit jeden druhého, proto se rozhodnoupro útěk, když se dozvědí, že Valeriina sestra byla zavražděna vlkodlakem,který loví v tmavém lese obklopující vesnici.Lidé z vesnice udržují po celá léta nelehké příměří se zlou bestií tím,že jí nabízejí každý měsíc zvířecí oběť. Pod krvavým úplňkem si  vlkodlak vybere ale oběť větší - lidský život,a tak lidé hladoví po pomstě zavolají známého lovce vlkodlaků, otce Solomona(Gary Oldman), aby jim pomohl bestii zabít. Solomon ale upozorní občany na to,že se vlkodlak přes den mění v člověka a že to může být kdokolivz nich. Když počet obětí roste s každým úplňkem, začne se Valerie domnívat,že vlkodlakem by mohl být někdo blízký. Panika svírá celou vesnici a Valeriezjišťuje, že má s nestvůrou jedinečné spojení – takové, které je neúprosnětáhne k sobě. Díky tomu se Valerie stává podezřelou...i návnadou.





Screen:
thumb


Red.Riding.Hood.2011.DVD5.CZ-TiELK\VIDEO_TS\VTS_01_1.VOB
Format: MPEG-PS
File size: 1 024 MiB
Duration: 21mn 34s
Overall bit rate: 6 638 Kbps

Video
ID: 224 (0xE0)
Format: MPEG Video
Format version: Version 2
Format profile: Main@Main
Format settings, BVOP: Yes
Format settings, Matrix: Default
Format settings, GOP: M=3, N=12
Duration: 21mn 34s
Bit rate mode: Variable
Bit rate: 5 610 Kbps
Nominal bit rate: 8 312 Kbps
Width: 720 pixels
Height: 576 pixels
Display aspect ratio: 16:9
Frame rate: 24.000 fps
Standard: PAL
Color space: YUV
Chroma subsampling: 4:2:0
Bit depth: 8 bits
Scan type: Progressive
Scan order: 2:2:2:2:2:2:2:2:2:2:2:3 Pulldown
Compression mode: Lossy
Bits/(Pixel*Frame): 0.564
Stream size: 865 MiB (85%)

Audio #1
ID: 189 (0xBD)-128 (0x80)
Format: AC-3
Format/Info: Audio Coding 3
Mode extension: CM (complete main)
Muxing mode: DVD-Video
Duration: 21mn 33s
Bit rate mode: Constant
Bit rate: 448 Kbps
Channel(s): 6 channels
Channel positions: Front: L C R, Side: L R, LFE
Sampling rate: 48.0 KHz
Bit depth: 16 bits
Compression mode: Lossy
Stream size: 69.1 MiB (7%)

Audio #2
ID: 189 (0xBD)-129 (0x81)
Format: AC-3
Format/Info: Audio Coding 3
Mode extension: CM (complete main)
Muxing mode: DVD-Video
Duration: 21mn 33s
Bit rate mode: Constant
Bit rate: 448 Kbps
Channel(s): 6 channels
Channel positions: Front: L C R, Side: L R, LFE
Sampling rate: 48.0 KHz
Bit depth: 16 bits
Compression mode: Lossy
Stream size: 69.1 MiB (7%)

Text
ID: 189 (0xBD)-32 (0x20)
Format: RLE
Format/Info: Run-length encoding
Muxing mode: DVD-Video


Komentáře

Komentáře

Celkem komentářů: 8 (Přihlašte se pro jejich zobrazení)

Lego

Konec stránky

Domů | Torrenty | Podpora | Statistika | Pravidla | FAQ | Uživatelé | Fórum | IRC