CzTorrent - 1. CZ Free Torrent Tracker - České nej amatérské porno (49.)

Menu

Statistika

Uživatelé Torrenty Seedeři Leecheři Peery Seed/Leech Přenesená data
199273 | 199273 115939 | 116652 697103 | 1189400 28895 | 58828 725998 | 1234693 2413% 585.648 PiB

Login

Obsah

Detaily torrentu

Detaily torrentu
Název:
České nej amatérské porno (49.)
Kategorie:
xXx
Přidán:
12.2.2012 11:07:22
Zkontrolován:
12.2.2012 11:07:22
Zdraví 82%
Provozovatel serveru nenese žádnou zodpovědnost za nahrané soubory. Odpovědnost nese vždy uploader souboru.
image

Originalny nazev: Ceske nej amaterske porno (49.)
Rok vydani: 2010
Delka: 126

Jazyk: CZ
Titulky: Ne

Kategorie: Porn xXx

Screen


Popis:
To nej z českého amatérského porna díl 49 !
Slečny a Paní ,ktere bud soulozi nebo masturbuji.



Bitrate/kodek:
General:
Complete name: Ceske nej amaterske porno (49.).avi
Format: AVI
Format/Info: Audio Video Interleave
Format profile: RIFF
File size: 1.00 GiB
Duration: 2h 6mn
Overall bit rate: 1 214 Kbps
Writing application: MEncoder SVN-r29214(20090422-gcc4.3.3)
Writing library: MPlayer
IAS1: Czech

Video
ID: 0
Format: MPEG-4 Visual
Format profile: Advanced Simple@L5
Format settings, BVOP: Yes
Format settings, QPel: No
Format settings, GMC: No warppoints
Format settings, Matrix: Default (H.263)
Codec ID: XVID
Codec ID/Hint: XviD
Duration: 2h 6mn
Bit rate: 1 110 Kbps
Width: 480 pixels
Height: 320 pixels
Display aspect ratio: 4:3
Frame rate: 25.000 fps
Standard: PAL
Resolution: 8 bits
Colorimetry: 4:2:0
Scan type: Progressive
Bits/(Pixel*Frame): 0.262
Stream size: 0.91 GiB (86%)
Writing library: XviD 1.2.1 (UTC 2008-12-04)

Audio
ID: 1
Format: MPEG Audio
Format version: Version 1
Format profile: Layer 3
Mode: Joint stereo
Format_Settings_ModeExtension: MS Stereo
Codec ID: 55
Codec ID/Hint: MP3
Duration: 2h 6mn
Bit rate mode: Constant
Bit rate: 128 Kbps
Channel(s): 2 channels
Sampling rate: 44.1 KHz
Video delay: 80ms
Stream size: 909 MiB (12%)
Language/String: Czech (CZ)
Alignment: Split accross interleaves
Interleave, duration: 503 ms (12.57 video frames)
Interleave, preload duration: 522 ms
Writing library: LAME3.98

Komentáře

Komentáře

Celkem komentářů: 0 (Přihlašte se pro jejich zobrazení)

Lego

Konec stránky

Domů | Torrenty | Podpora | Statistika | Pravidla | FAQ | Uživatelé | Fórum | IRC