CzTorrent - 1. CZ Free Torrent Tracker - Cesta na tajuplný ostrov 2 / Journey 2: The Mysterious Island (2012) [CAM]

Menu

CEX.IO

Statistika

Uživatelé Torrenty Seedeři Leecheři Peery Seed/Leech Přenesená data
205628 | 209759 118290 | 118290 1264819 | 1335257 51333 | 61970 1316150 | 1383327 2464% 641.929 PiB

Login

pbmining.com

Obsah

Detaily torrentu

Detaily torrentu
Název:
Cesta na tajuplný ostrov 2 / Journey 2: The Mysterious Island (2012) [CAM]
Kategorie:
Filmy
Přidán:
18.2.2012 22:41:12
Zkontrolován:
18.2.2012 22:41:12
Zdraví 100%
Provozovatel serveru nenese žádnou zodpovědnost za nahrané soubory. Odpovědnost nese vždy uploader souboru.
image
Jazyk: Čeština
Titulky: Nejsou
Odkaz na CSFD: http://www.csfd.cz/film/285963-cesta-na-tajuplny-ostrov-2/
Rok vydání: 2012
Žánr: Akční / Dobrodružný / Rodinný / Fantasy
Délka: 1h 26minut

Kvalita zvuku:
ID: 1
Format: MPEG Audio
Format version: Version 1
Format profile: Layer 3
Mode: Joint stereo
Mode extension: MS Stereo
Codec ID: 55
Codec ID/Hint: MP3
Duration: 1h 26mn
Bit rate mode: Constant
Bit rate: 128 Kbps
Channel(s): 2 channels
Sampling rate: 44.1 KHz
Compression mode: Lossy
Stream size: 79.4 MiB (10%)
Alignment: Aligned on interleaves
Interleave, duration: 26 ms (0.60 video frame)
Interleave, preload duration: 522 ms

Kvalita videa:
ID: 0
Format: AVC
Format/Info: Advanced Video Codec
Format profile: High@L3.0
Format settings, CABAC: No
Format settings, ReFrames: 1 frame
Codec ID: avc1
Duration: 1h 26mn
Bit rate: 1 094 Kbps
Width: 720 pixels
Height: 304 pixels
Display aspect ratio: 2.35:1
Frame rate: 23.000 fps
Color space: YUV
Chroma subsampling: 4:2:0
Bit depth: 8 bits
Scan type: Progressive
Bits/(Pixel*Frame): 0.217
Stream size: 671 MiB (89%)
Writing library: x264 core 80 r1378+57 6f6b50a

Screen:
thumb

Zvuk je na pár místech posunutý. Doporučuji program "VLC media player" ve kterém se dá snadno posouvat zvuk.

Komentáře

Komentáře

Celkem komentářů: 50 (Přihlašte se pro jejich zobrazení)

Lego

Konec stránky

Domů | Torrenty | Podpora | Statistika | Pravidla | FAQ | Uživatelé | Fórum | IRC