CzTorrent - 1. CZ Free Torrent Tracker - Czechav - CzechCasting (Vladimira) [720p]

Menu

CEX.IO

Statistika

Uživatelé Torrenty Seedeři Leecheři Peery Seed/Leech Přenesená data
204925 | 207019 117400 | 117413 1030428 | 1278663 49515 | 59026 1079948 | 1337461 2081% 623.206 PiB

Login

pbmining.com

Obsah

Detaily torrentu

Detaily torrentu
Název:
Czechav - CzechCasting (Vladimira) [720p]
Kategorie:
xXx
Přidán:
21.11.2012 14:53:19
Zkontrolován:
21.11.2012 14:53:19
Zdraví 100%
Provozovatel serveru nenese žádnou zodpovědnost za nahrané soubory. Odpovědnost nese vždy uploader souboru.

image



Jazyk: CZ
Titulky: Engl.
Rok vydání: 2012
Délka: 26mn 20s
Žánr: XXX
Screen:




Format: Windows Media
File size: 598 MiB
Duration: 26mn 20s
Overall bit rate: 3 175 Kbps
Maximum Overall bit rate: 3 128 Kbps
Encoded date: UTC 1970-01-01 00:00:00.000
WM/EncodingSettings: Lavf54.3.100

Video
ID: 1
Format: WMV2
Codec ID: WMV2
Codec ID/Info: Windows Media Video 8
Description of the codec: wmv2
Duration: 26mn 20s
Bit rate: 2 912 Kbps
Width: 1 280 pixels
Height: 720 pixels
Display aspect ratio: 16:9
Frame rate: 25.000 fps
Bit depth: 8 bits
Bits/(Pixel*Frame): 0.126
Stream size: 549 MiB (92%)

Audio
ID: 2
Format: WMA
Format version: Version 2
Codec ID: 161
Codec ID/Info: Windows Media Audio
Description of the codec: Windows Media Audio V8
Duration: 26mn 20s
Bit rate: 128 Kbps
Channel(s): 2 channels
Sampling rate: 48.0 KHz
Bit depth: 16 bits
Stream size: 24.1 MiB (4%)

Komentáře

Komentáře

Celkem komentářů: 0 (Přihlašte se pro jejich zobrazení)

Lego

Konec stránky

Domů | Torrenty | Podpora | Statistika | Pravidla | FAQ | Uživatelé | Fórum | IRC