CzTorrent - 1. CZ Free Torrent Tracker - Dárek z lásky / Noel

Menu

CEX.IO

Statistika

Uživatelé Torrenty Seedeři Leecheři Peery Seed/Leech Přenesená data
204813 | 207019 117559 | 117565 817773 | 1278663 35759 | 60746 853529 | 1337461 2287% 628.837 PiB

Login

pbmining.com

Obsah

Detaily torrentu

Detaily torrentu
Název:
Dárek z lásky / Noel
Kategorie:
Filmy
Přidán:
20.11.2011 14:03:16
Zkontrolován:
20.11.2011 14:03:16
Zdraví 100%
Provozovatel serveru nenese žádnou zodpovědnost za nahrané soubory. Odpovědnost nese vždy uploader souboru.

image


Dárek z lásky / Noel

Drama / Romantický

V New Yorku se náhodně na Štědrý den setkává 5 lidí. Jsou propojeni sérií nevysvětlitelných příhod a s malou vzájemnou pomocí si uvědomují nový smysl svých životů.



Hrají:
Penélope Cruz, Susan Sarandon, Paul Walker, Alan Arkin, Chazz Palminteri, Marcus Thomas, Daniel Sunjata, Victoria Sanchez, Robin Williams, Marcia Bennett, Lucinda Davis, Graham Phillips, John Doman


Jazyk: CZ
Titulky: NIE
Odkaz na CSFD: http://www.csfd.cz/film/189564-darek-z-lasky/strana-2/
Rok vydání: 2004
Délka: 1:32:39
Žánr: Drama / Romantický
Screen:
thumb


Format: AVI
Format/Info: Audio Video Interleave
File size: 700 MiB
Duration: 1h 32mn
Overall bit rate: 1 056 Kbps
Writing application: VirtualDubMod 1.5.4.1 (build 2178/release)
Writing library: VirtualDubMod build 2178/release

Video
ID: 0
Format: MPEG-4 Visual
Format profile: Advanced Simple@L5
Format settings, BVOP: 1
Format settings, QPel: No
Format settings, GMC: No warppoints
Format settings, Matrix: Custom
Codec ID: XVID
Codec ID/Hint: XviD
Duration: 1h 32mn
Bit rate: 930 Kbps
Width: 720 pixels
Height: 304 pixels
Display aspect ratio: 2.35:1
Frame rate: 25.000 fps
Color space: YUV
Chroma subsampling: 4:2:0
Bit depth: 8 bits
Scan type: Progressive
Compression mode: Lossy
Bits/(Pixel*Frame): 0.170
Stream size: 616 MiB (88%)
Writing library: XviD 1.2.0.dev47 (UTC 2006-11-01)

Audio
ID: 1
Format: MPEG Audio
Format version: Version 1
Format profile: Layer 3
Mode: Joint stereo
Mode extension: MS Stereo
Codec ID: 55
Codec ID/Hint: MP3
Duration: 1h 32mn
Bit rate mode: Variable
Bit rate: 113 Kbps
Nominal bit rate: 128 Kbps
Channel(s): 2 channels
Sampling rate: 48.0 KHz
Compression mode: Lossy
Stream size: 75.1 MiB (11%)
Alignment: Aligned on interleaves
Interleave, duration: 24 ms (0.60 video frame)
Interleave, preload duration: 162 ms
Writing library: LAME3.97
Encoding settings: -m j -V 4 -q 2 -lowpass 17 --abr 128
Language                         : Czech



Dufam ze sa bude pacit :thumbsup:

Body potesia






Komentáře

Komentáře

Celkem komentářů: 1 (Přihlašte se pro jejich zobrazení)

Lego

Konec stránky

Domů | Torrenty | Podpora | Statistika | Pravidla | FAQ | Uživatelé | Fórum | IRC