CzTorrent - 1. CZ Free Torrent Tracker - Grimm S02E12 - Season of the Hexenbiest [TVRip]

Menu

Statistika

Uživatelé Torrenty Seedeři Leecheři Peery Seed/Leech Přenesená data
171826 | 180098 115096 | 116652 892454 | 1189400 35676 | 58828 928128 | 1234693 2502% 19391.869 PiB

Login

airbrush-potreby

Obsah

Detaily torrentu

Detaily torrentu
Název:
Grimm S02E12 - Season of the Hexenbiest [TVRip]
Kategorie:
Seriály
Přidán:
18.11.2012 21:05:10
Zkontrolován:
18.11.2012 21:05:10
Zdraví 37%
Provozovatel serveru nenese žádnou zodpovědnost za nahrané soubory. Odpovědnost nese vždy uploader souboru.
General
Complete name: D:\Grimm S02E12 CZ TIT\Grimm.S02E12.HDTV.avi
Format: AVI
Format/Info: Audio Video Interleave
File size: 290 MiB
Duration: 42mn 22s
Overall bit rate: 958 Kbps
Writing application: MEncoder SVN-r33883(20110719-gcc4.5.2)
Writing library: MPlayer

Video
ID: 0
Format: MPEG-4 Visual
Format profile: Advanced Simple@L5
Format settings, BVOP: 2
Format settings, QPel: No
Format settings, GMC: No warppoints
Format settings, Matrix: Default (H.263)
Codec ID: XVID
Codec ID/Hint: XviD
Duration: 42mn 21s
Bit rate: 817 Kbps
Width: 728 pixels
Height: 408 pixels
Display aspect ratio: 16:9
Frame rate: 23.976 fps
Color space: YUV
Chroma subsampling: 4:2:0
Bit depth: 8 bits
Scan type: Progressive
Compression mode: Lossy
Bits/(Pixel*Frame): 0.115
Stream size: 248 MiB (85%)
Writing library: XviD 1.2.1 (UTC 2008-12-04)

Audio
ID: 1
Format: MPEG Audio
Format version: Version 1
Format profile: Layer 3
Mode: Joint stereo
Codec ID: 55
Codec ID/Hint: MP3
Duration: 42mn 22s
Bit rate mode: Constant
Bit rate: 128 Kbps
Channel(s): 2 channels
Sampling rate: 44.1 KHz
Compression mode: Lossy
Delay relative to video: 42ms
Stream size: 38.8 MiB (13%)
Alignment: Aligned on interleaves
Interleave, duration: 26 ms (0.63 video frame)
Interleave, preload duration: 522 ms
Writing library: LAME3.98.4
thumb
thumb
Jazyk: Angličtina
Titulky: CZ
Kvalita zvuku: MPEG Audio(mp3)
Kvalita videa: Tv(avi)
Odkaz na CSFD: http://www.csfd.cz/film/300301-grimm/
Rok vydání: 2011
Délka: 00:42:22
Obal:
image

Žánr: Drama / Fantasy / Horor / Mysteriózní

Do města se vrací Adelind, aby pomstila smrt své matky.
Posedlost kapitána Renarda eskaluje.
Monroa navštíví neočekávaná návštěva.
Seznam souborů:

Komentáře

Komentáře


preloader Načítám komentáře
Lego

Konec stránky

Domů | Torrenty | Žádosti | Upload | Pravidla | Hodnosti | Uživatelé | Statistika | Fórum | IRC