CzTorrent - 1. CZ Free Torrent Tracker - Mišo (1979)(SK)

Menu

CEX.IO

Statistika

Uživatelé Torrenty Seedeři Leecheři Peery Seed/Leech Přenesená data
204658 | 207019 117419 | 117432 501058 | 1278663 21771 | 59026 522829 | 1337461 2301% 624.44 PiB

Login

pbmining.com

Obsah

Detaily torrentu

Detaily torrentu
Název:
Mišo (1979)(SK)
Kategorie:
Filmy
Přidán:
20.1.2014 11:24:13
Zkontrolován:
20.1.2014 11:24:13
Zdraví 100%
Provozovatel serveru nenese žádnou zodpovědnost za nahrané soubory. Odpovědnost nese vždy uploader souboru.
Jazyk: sk
Titulky: mie
Odkaz na CSFD: http://www.csfd.cz/film/29287-miso/
Rok vydání: 1979
Délka: 60 min
Žánr: komedie

Televízny film Mišo je adaptáciou poviedky Martina Kukučína. Hlavného hrdinu humorne ladeného príbehu, Miša, autor obdaril ľudskou slabosťou - láskou k poháriku. Bojuje medzi čestným slovom, ktoré dal pánu farárovi Drozdíkovi, že piť nebude a medzi zvodmi okolitého sveta a príležitosťami vo viniciach i na jarmoku, kde každý "pustí slzu dolu hrdlom".


media info:
General
Complete name: D:\Vuze_up\00\Miso.avi
Format: AVI
Format/Info: Audio Video Interleave
Format profile: OpenDML
File size: 1.95 GiB
Duration: 1h 5mn
Overall bit rate: 4 257 Kbps
Writing application: MEncoder version Beta 4.4.5 building on 20110111

Video
ID: 0
Format: MPEG-4 Visual
Format profile: Simple@L1
Format settings, BVOP: No
Format settings, QPel: No
Format settings, GMC: No warppoints
Format settings, Matrix: Default (H.263)
Codec ID: DX50
Codec ID/Hint: DivX 5
Duration: 1h 5mn
Bit rate: 3 997 Kbps
Width: 720 pixels
Height: 540 pixels
Display aspect ratio: 4:3
Frame rate: 25.000 fps
Color space: YUV
Chroma subsampling: 4:2:0
Bit depth: 8 bits
Scan type: Progressive
Compression mode: Lossy
Bits/(Pixel*Frame): 0.411
Stream size: 1.83 GiB (94%)
Writing library: DigiArty AV Encoder Core

Audio
ID: 1
Format: AC-3
Format/Info: Audio Coding 3
Mode extension: CM (complete main)
Format settings, Endianness: Big
Codec ID: 2000
Duration: 1h 5mn
Bit rate mode: Constant
Bit rate: 256 Kbps
Channel(s): 2 channels
Channel positions: Front: L R
Sampling rate: 48.0 KHz
Bit depth: 16 bits
Compression mode: Lossy
Stream size: 120 MiB (6%)
Alignment: Split accross interleaves
Interleave, duration: 500 ms (12.50 video frames)
Interleave, preload duration: 500 ms



screenshot:
thumb
thumb

Komentáře

Komentáře

Celkem komentářů: 0 (Přihlašte se pro jejich zobrazení)

Lego

Konec stránky

Domů | Torrenty | Podpora | Statistika | Pravidla | FAQ | Uživatelé | Fórum | IRC