CzTorrent - 1. CZ Free Torrent Tracker - Nahé Česke celebrity foto, video

Menu

CEX.IO

Statistika

Uživatelé Torrenty Seedeři Leecheři Peery Seed/Leech Přenesená data
205926 | 209759 118200 | 118230 507885 | 1335257 17079 | 61970 524964 | 1383327 2974% 637.724 PiB

Login

pbmining.com

Obsah

Detaily torrentu

Detaily torrentu
Název:
Nahé Česke celebrity foto, video
Kategorie:
xXx
Přidán:
28.7.2010 19:50:39
Zkontrolován:
28.7.2010 19:50:39
Zdraví 100%
Provozovatel serveru nenese žádnou zodpovědnost za nahrané soubory. Odpovědnost nese vždy uploader souboru.

image


Jazyk: CZ
Počet videí a fotek: 1163
Rozlišení fotek: 600x1024

Kvalita zvuku: Audio
ID: 1
Format: AC-3
Format/Info: Audio Coding 3
Format profile: Dolby Digital
Mode extension: CM (complete main)
Codec ID: 2000
Duration: 14s 848ms
Bit rate mode: Constant
Bit rate: 192 Kbps
Channel(s): 2 channels
Channel positions: Front: L R
Sampling rate: 48.0 KHz
Stream size: 348 KiB (8%)
Alignment: Aligned on interleaves
Interleave, duration: 41 ms (1.03 video frame)
Interleave, preload duration: 512 ms


Kvalita videa: General
Complete name: E:\Videa\Nahé Česke celebrity\Marketa Hrubesova\Marketa_Hrubesova_-_Sedim_na_konari_a_je_mi_dobre_03.avi
Format: AVI
Format/Info: Audio Video Interleave
File size: 4.22 MiB
Duration: 14s 848ms
Overall bit rate: 2 382 Kbps
Writing application: VirtualDubMod 1.5.10.1 (build 2366/release)
Writing library: VirtualDubMod build 2366/release

Video
ID: 0
Format: MPEG-4 Visual
Format profile: Advanced Simple@L5
Format settings, BVOP: Yes
Format settings, QPel: Yes
Format settings, GMC: No warppoints
Format settings, Matrix: Default (H.263)
Muxing mode: Packed bitstream
Codec ID: XVID
Codec ID/Hint: XviD
Duration: 14s 840ms
Bit rate: 2 176 Kbps
Width: 720 pixels
Height: 540 pixels
Display aspect ratio: 4:3
Frame rate: 25.000 fps
Color space: YUV
Chroma subsampling: 4:2:0
Bit depth: 8 bits
Scan type: Progressive
Bits/(Pixel*Frame): 0.224
Stream size: 3.85 MiB (91%)
Writing library: XviD 1.2.0SMP (UTC 2006-01-08)
Screen:

Komentáře

Komentáře

Celkem komentářů: 10 (Přihlašte se pro jejich zobrazení)

Lego

Konec stránky

Domů | Torrenty | Podpora | Statistika | Pravidla | FAQ | Uživatelé | Fórum | IRC