CzTorrent - 1. CZ Free Torrent Tracker - Nejlepší české amatérské porno 5

Menu

Statistika

Uživatelé Torrenty Seedeři Leecheři Peery Seed/Leech Přenesená data
204921 | 207019 116635 | 116691 1114595 | 1217025 47337 | 58828 1161928 | 1269583 2355% 607.159 PiB

Login

Obsah

Detaily torrentu

Detaily torrentu
Název:
Nejlepší české amatérské porno 5
Kategorie:
xXx
Přidán:
13.3.2014 12:08:21
Zkontrolován:
13.3.2014 12:08:21
Zdraví 100%
Provozovatel serveru nenese žádnou zodpovědnost za nahrané soubory. Odpovědnost nese vždy uploader souboru.
image

Jazyk: cz
Titulky: ne
Rok vydání: 2014
Délka: 1h23mn
Žánr: xxx

Screen:



Complete name: C:\Users\adam\Desktop\xxx\xxx_Nejlepsi_ceske_amaterske_porno_5_sex.avi
Format: AVI
Format/Info: Audio Video Interleave
File size: 700 MiB
Duration: 1h 23mn
Overall bit rate mode: Variable
Overall bit rate: 1 171 Kbps
Writing application: VirtualDubMod 1.5.10.2 (build 2540/release)
Writing library: VirtualDubMod build 2540/release

Video
ID: 0
Format: MPEG-4 Visual
Format profile: Advanced Simple@L5
Format settings, BVOP: 1
Format settings, QPel: No
Format settings, GMC: No warppoints
Format settings, Matrix: Custom
Codec ID: XVID
Codec ID/Hint: XviD
Duration: 1h 23mn
Bit rate: 1 060 Kbps
Width: 720 pixels
Height: 544 pixels
Display aspect ratio: 4:3
Frame rate: 25.000 fps
Color space: YUV
Chroma subsampling: 4:2:0
Bit depth: 8 bits
Scan type: Progressive
Compression mode: Lossy
Bits/(Pixel*Frame): 0.108
Stream size: 633 MiB (91%)
Writing library: XviD 1.2.0.dev47 (UTC 2006-11-01)

Audio
ID: 1
Format: MPEG Audio
Format version: Version 1
Format profile: Layer 3
Mode: Joint stereo
Mode extension: MS Stereo
Codec ID: 55
Codec ID/Hint: MP3
Duration: 1h 23mn
Bit rate mode: Variable
Bit rate: 98.3 Kbps
Nominal bit rate: 112 Kbps
Channel(s): 2 channels
Sampling rate: 44.1 KHz
Compression mode: Lossy
Stream size: 58.7 MiB (8%)
Alignment: Aligned on interleaves
Interleave, duration: 26 ms (0.65 video frame)
Interleave, preload duration: 543 ms
Writing library: LAME3.97
Encoding settings: -m j -V 4 -q 2 -lowpass 15.6 --abr 112

Komentáře

Komentáře

Celkem komentářů: 0 (Přihlašte se pro jejich zobrazení)

Lego

Konec stránky

Domů | Torrenty | Podpora | Statistika | Pravidla | FAQ | Uživatelé | Fórum | IRC