CzTorrent - 1. CZ Free Torrent Tracker - Nepřítel pod ochranou / Safe House (2012) [1080p]

Menu

Statistika

Uživatelé Torrenty Seedeři Leecheři Peery Seed/Leech Přenesená data
204888 | 207019 116719 | 116719 1021507 | 1217025 47572 | 58828 1069079 | 1269583 2147% 608.061 PiB

Login

Obsah

Detaily torrentu

Detaily torrentu
Název:
Nepřítel pod ochranou / Safe House (2012) [1080p]
Kategorie:
HD
Přidán:
1.6.2012 18:52:55
Zkontrolován:
1.6.2012 18:52:55
Zdraví 100%
Provozovatel serveru nenese žádnou zodpovědnost za nahrané soubory. Odpovědnost nese vždy uploader souboru.
thumb

Jazyk: anglický
Titulky: české (přiložené)
Odkaz na CSFD: http://www.csfd.cz/film/287722-nepritel-pod-ochranou/videa/
Rok vydání: 2012
Délka: 115 minut
Žánr: Akční / Krimi / Mysteriózní / Thriller

Matt Weston (Ryan Reynolds) sice pracuje u CIA, ale přesto se pekelně nudí. Jeho pověřením je spravovat tajné vězení CIA v Kapském Městě, v němž dosud nebyl nikdo „ubytován“. Hned první „host“ ale bude z kategorie VIP. Tobin Frost (Denzel Washington) je bývalý elitní agent amerických tajných služeb, který začal před lety pracovat proti mateřské organizaci. Prodával informace každému, kdo o ně projevil zájem a zaplatil dostatečnou sumu, vraždil bývalé kolegy, dodával materiální podporu teroristickým režimům po celém světě a než se ho podařilo dopadnout, uběhlo téměř jedno celé desetiletí. Tahle velká ryba se za mřížemi nestačí ani rozkoukat, když na utajený objekt zaútočí neznámí ozbrojenci. Dosud nepříliš akční Weston se rozhodne chytit příležitost za pačesy a na poslední chvíli i s Frostem z objektu uteče. Jen jestli si neukrojil příliš velké sousto. Nesmí si vězně pouštět k tělu, na druhou stranu ho ale musí za každou cenu chránit. Navíc musí zjistit, kdo a proč se jeho „chráněnce“ snažil dostat ven, ať už na svobodu, nebo pod kytičky. Otázek je spousta, ale na odpovědi není čas, protože tahle hra se hraje v jednom z nejnebezpečnějších míst na zeměkouli, kde můžete koupit kulku stejně snadno jako zmrzlinu. (oficiální text distributora)

MediaInfo:

General
Unique ID: 186482249708961998793282793274953885133 (0x8C4B2CC5024DDA5EB9EA66A6E402E5CD)
Complete name: Safe.House.2012.BluRay.1080p.DTS.x264-CHD.mkv
Format: Matroska
Format version: Version 2
File size: 16.8 GiB
Duration: 1h 54mn
Overall bit rate: 20.9 Mbps
Encoded date: UTC 2012-05-25 14:20:46
Writing application: mkvmerge v4.8.0 ('I Got The...';) 编译于 May 24 2011 03:12:58
Writing library: libebml v1.2.0 + libmatroska v1.1.0

Video
ID: 1
Format: AVC
Format/Info: Advanced Video Codec
Format profile: High@L4.1
Format settings, CABAC: Yes
Format settings, ReFrames: 5 frames
Codec ID: V_MPEG4/ISO/AVC
Duration: 1h 54mn
Bit rate: 19.4 Mbps
Width: 1 920 pixels
Height: 800 pixels
Display aspect ratio: 2.40:1
Frame rate: 23.976 fps
Color space: YUV
Chroma subsampling: 4:2:0
Bit depth: 8 bits
Scan type: Progressive
Bits/(Pixel*Frame): 0.527
Stream size: 15.2 GiB (91%)
Title: hahay0yo@CHD
Writing library: x264 core 122 r2184 5c85e0a
Encoding settings: cabac=1 / ref=5 / deblock=1:-3:-3 / analyse=0x3:0x113 / me=umh / subme=10 / psy=1 / psy_rd=1.10:0.10 / mixed_ref=1 / me_range=32 / chroma_me=1 / trellis=2 / 8x8dct=1 / cqm=0 / deadzone=21,11 / fast_pskip=0 / chroma_qp_offset=-2 / threads=12 / sliced_threads=0 / nr=0 / decimate=1 / interlaced=0 / bluray_compat=0 / constrained_intra=0 / bframes=6 / b_pyramid=2 / b_adapt=2 / b_bias=0 / direct=3 / weightb=1 / open_gop=0 / weightp=2 / keyint=250 / keyint_min=23 / scenecut=40 / intra_refresh=0 / rc_lookahead=60 / rc=2pass / mbtree=0 / bitrate=19398 / ratetol=1.0 / qcomp=0.60 / qpmin=0 / qpmax=69 / qpstep=4 / cplxblur=20.0 / qblur=0.5 / vbv_maxrate=40000 / vbv_bufsize=40000 / nal_hrd=none / ip_ratio=1.40 / pb_ratio=1.30 / aq=1:1.00
Language: English
Default: Yes
Forced: No

Audio
ID: 2
Format: DTS
Format/Info: Digital Theater Systems
Codec ID: A_DTS
Duration: 1h 54mn
Bit rate mode: Constant
Bit rate: 1 510 Kbps
Channel(s): 6 channels
Channel positions: Front: L C R, Side: L R, LFE
Sampling rate: 48.0 KHz
Bit depth: 24 bits
Compression mode: Lossy
Stream size: 1.21 GiB (7%)
Title: English DTS 5.1 1509Kbps
Language: English
Default: Yes
Forced: No

Komentáře

Komentáře

Celkem komentářů: 0 (Přihlašte se pro jejich zobrazení)

Lego

Konec stránky

Domů | Torrenty | Podpora | Statistika | Pravidla | FAQ | Uživatelé | Fórum | IRC