CzTorrent - 1. CZ Free Torrent Tracker - Nezvratný Osud 1,2,3,4 / Final Destination 1,2,3,4

Menu

CEX.IO

Statistika

Uživatelé Torrenty Seedeři Leecheři Peery Seed/Leech Přenesená data
204930 | 207019 117254 | 117339 1030037 | 1278663 45158 | 59026 1075196 | 1337461 2281% 653.755 PiB

Login

pbmining.com

Obsah

Detaily torrentu

Detaily torrentu
Název:
Nezvratný Osud 1,2,3,4 / Final Destination 1,2,3,4
Kategorie:
Filmy
Přidán:
14.5.2010 15:02:47
Zkontrolován:
14.5.2010 15:02:47
Zdraví 100%
Provozovatel serveru nenese žádnou zodpovědnost za nahrané soubory. Odpovědnost nese vždy uploader souboru.
Jazyk: Cz

Titulky: Ne

Žánr: Horor

Obaly:

[img]http://img291.imageshack.us/img291/857/finaldestinationc.jpg[/img]

[img]http://img297.imageshack.us/img297/2071/nezvratnyosud2.jpg[/img]

[img]http://img291.imageshack.us/img291/9248/finaldestination3i.jpg[/img]

image



Rok Vydání: Nezvratný Osud 1 - 2000
                  Nezvratný Osud 2 - 2003
                  Nezvratný Osud 3 - 2006
                  Nezvratný Osud 4 - 2009

Délka:      Nezvratný Osud 1 - 98 min.
                  Nezvratný Osud 2 - 90 min.
                  Nezvratný Osud 3 - 93 min.
                  Nezvratný Osud 4 - 82 min.

Odkazy:     http://www.csfd.cz/film/29943-nezvratny-osud/
                  http://www.csfd.cz/film/82444-nezvratny-osud-2/
                  http://www.csfd.cz/film/214337-nezvratny-osud-3/
                  http://www.csfd.cz/film/242330-nezvratny-osud-4/


Média Info:

Nezvratný Osud 1

Formát: AVI
Formát/Info: Audio Video Interleave
Velikost souboru: 650 MiB
Duration: 1h 33mn
Celkový BitRate: 967 Kbps
Použitý software: MEncoder Sherpya-SVN-r26446-4.2.3
Enkódoval: MPlayer

Video
Formát: MPEG-4 Visual
Format profile: Simple@L3
Format settings, BVOP: Ne
Format settings, QPel: Ne
Format settings, GMC: No warppoints
Format settings, Matrix: Default
Codec ID: XVID
Codec ID/Hint: XviD
Duration: 1h 33mn
Bit rate: 767 Kbps
Šířka: 720pixely
Výška: 576pixely
Poměr stran: 5/4
Frame rate: 25,000 fps
Standard: PAL
Rozlišení: 24 bits
Colorimetry: 4:2:0
Scan type: Progressive
Bits/(Pixel*Frame): 0.074
Stream size: 515 MiB (79%)
Enkódoval: XviD 1.1.2 (UTC 2006-11-01)

Audio
Formát: MPEG Audio
Format version: Version 1
Format profile: Layer 3
Codec ID: 55
Codec ID/Hint: MP3
Duration: 1h 33mn
Bit rate mode: Variable
Bit rate: 188 Kbps
Kanál(y): 2 kanály
Sampling rate: 44,1 KHz
Rozlišení: 16 bits
Stream size: 126 MiB (19%)
Alignment: Aligned on interleaves
Interleave, duration: 26 ms (0,65 video frame)
Interleave, preload duration: 546 ms

Nezvratný Osud 2

Formát: AVI
Formát/Info: Audio Video Interleave
Velikost souboru: 599 MiB
Duration: 1h 26mn
Celkový BitRate: 968 Kbps
Použitý software: MEncoder Sherpya-SVN-r26446-4.2.3
Enkódoval: MPlayer

Video
Formát: MPEG-4 Visual
Format profile: Simple@L3
Format settings, BVOP: Ne
Format settings, QPel: Ne
Format settings, GMC: No warppoints
Format settings, Matrix: Default
Codec ID: XVID
Codec ID/Hint: XviD
Duration: 1h 26mn
Bit rate: 767 Kbps
Šířka: 720pixely
Výška: 576pixely
Poměr stran: 5/4
Frame rate: 25,000 fps
Standard: PAL
Rozlišení: 24 bits
Colorimetry: 4:2:0
Scan type: Progressive
Bits/(Pixel*Frame): 0.074
Stream size: 474 MiB (79%)
Enkódoval: XviD 1.1.2 (UTC 2006-11-01)

Audio
Formát: MPEG Audio
Format version: Version 1
Format profile: Layer 3
Codec ID: 55
Codec ID/Hint: MP3
Duration: 1h 26mn
Bit rate mode: Variable
Bit rate: 189 Kbps
Kanál(y): 2 kanály
Sampling rate: 44,1 KHz
Rozlišení: 16 bits
Stream size: 117 MiB (20%)
Alignment: Aligned on interleaves
Interleave, duration: 26 ms (0,65 video frame)
Interleave, preload duration: 577 ms

Nezvratný Osud 3

Formát: AVI
Formát/Info: Audio Video Interleave
Velikost souboru: 617 MiB
Duration: 1h 29mn
Celkový BitRate: 970 Kbps
Použitý software: MEncoder Sherpya-SVN-r26446-4.2.3
Enkódoval: MPlayer

Video
Formát: MPEG-4 Visual
Format profile: Simple@L3
Format settings, BVOP: Ne
Format settings, QPel: Ne
Format settings, GMC: No warppoints
Format settings, Matrix: Default
Codec ID: XVID
Codec ID/Hint: XviD
Duration: 1h 29mn
Bit rate: 767 Kbps
Šířka: 720pixely
Výška: 576pixely
Poměr stran: 5/4
Frame rate: 25,000 fps
Standard: PAL
Rozlišení: 24 bits
Colorimetry: 4:2:0
Scan type: Progressive
Bits/(Pixel*Frame): 0.074
Stream size: 488 MiB (79%)
Enkódoval: XviD 1.1.2 (UTC 2006-11-01)

Audio
Formát: MPEG Audio
Format version: Version 1
Format profile: Layer 3
Codec ID: 55
Codec ID/Hint: MP3
Duration: 1h 29mn
Bit rate mode: Constant
Bit rate: 32,0 Kbps
Kanál(y): 2 kanály
Sampling rate: 44,1 KHz
Rozlišení: 16 bits
Stream size: 121 MiB (20%)
Alignment: Aligned on interleaves
Interleave, duration: 26 ms (0,65 video frame)
Interleave, preload duration: 520 ms
Enkódoval: LAME3.97

Nezvratný Osud 4

Formát: AVI
Formát/Info: Audio Video Interleave
Velikost souboru: 1,45 GiB
Duration: 1h 21mn
Celkový BitRate: 2 541 Kbps
Použitý software: VirtualDubMod 1.5.10.2 (build 2540/release)
Enkódoval: VirtualDubMod build 2540/release

Video
Formát: MPEG-4 Visual
Format profile: Streaming Video@L1
Format settings, BVOP: Ano
Format settings, QPel: Ne
Format settings, GMC: No warppoints
Format settings, Matrix: Custom
Codec ID: XVID
Codec ID/Hint: XviD
Duration: 1h 21mn
Bit rate: 2 084 Kbps
Šířka: 720pixely
Výška: 300pixely
Poměr stran: 2.400
Frame rate: 23,976 fps
Rozlišení: 24 bits
Colorimetry: 4:2:0
Scan type: Progressive
Bits/(Pixel*Frame): 0.402
Stream size: 1,19 GiB (82%)
Enkódoval: XviD 50

Audio
Formát: AC-3
Formát/Info: Audio Coding 3
Codec ID: 2000
Duration: 1h 21mn
Bit rate mode: Constant
Bit rate: 448 Kbps
Kanál(y): 6 kanály
Channel positions: Front: L C R, Rear: L R, LFE
Sampling rate: 48,0 KHz
Stream size: 262 MiB (18%)
Alignment: Split accross interleaves
Interleave, duration: 42 ms (1,00 video frame)
Interleave, preload duration: 500 ms

Přání Všem: PŘEJI PŘÍJEMNOU ZÁBAVU ;)
Upload By: fusionek

Komentáře

Komentáře

Celkem komentářů: 27 (Přihlašte se pro jejich zobrazení)

Lego

Konec stránky

Domů | Torrenty | Podpora | Statistika | Pravidla | FAQ | Uživatelé | Fórum | IRC