CzTorrent - 1. CZ Free Torrent Tracker - Přátelé / Friends 1. série [720p]

Menu

Statistika

Uživatelé Torrenty Seedeři Leecheři Peery Seed/Leech Přenesená data
171607 | 180098 115120 | 116652 583557 | 1189400 19345 | 58828 602913 | 1234693 3017% 19392.957 PiB

Login

Náš Wedos - nejlepší český webhosting

Obsah

Detaily torrentu

Detaily torrentu
Název:
Přátelé / Friends 1. série [720p]
Kategorie:
Seriály
Přidán:
27.11.2012 20:53:20
Zkontrolován:
27.11.2012 20:53:20
Zdraví 93%
Provozovatel serveru nenese žádnou zodpovědnost za nahrané soubory. Odpovědnost nese vždy uploader souboru.
Jazyk: Anglický
Titulky: České
Kvalita zvuku: Dolby AC3 48000Hz 6ch 4608kbps
Kvalita videa: MPEG4 Video (H264) 1280x720 23.976fps
Odkaz na CSFD: http://www.csfd.cz/film/68928-pratele/
Rok vydání: 1994–2004
Délka: 24 x cca22min
Obal:
thumb
Žánr: Komedie / Romantický
Screen:
thumb thumb



Výpis z MediaInfo:
Format: Matroska
Format version: Version 2
File size: 768 MiB
Duration: 22mn 46s
Overall bit rate: 4 717 Kbps
Encoded date: UTC 2012-11-09 17:58:05
Writing application: mkvmerge v5.8.0 ('No Sleep / Pillow';) built on Sep  2 2012 15:37:04
Writing library: libebml v1.2.3 + libmatroska v1.3.0

Video
ID: 1
Format: AVC
Format/Info: Advanced Video Codec
Format profile: High@L4.1
Format settings, CABAC: Yes
Format settings, ReFrames: 5 frames
Codec ID: V_MPEG4/ISO/AVC
Duration: 22mn 46s
Bit rate: 4 078 Kbps
Width: 1 280 pixels
Height: 720 pixels
Display aspect ratio: 16:9
Frame rate mode: Constant
Frame rate: 23.976 fps
Color space: YUV
Chroma subsampling: 4:2:0
Bit depth: 8 bits
Scan type: Progressive
Bits/(Pixel*Frame): 0.185
Stream size: 649 MiB (84%)
Title: 720p
Writing library: x264 core 128 r2216 198a7ea
Encoding settings: cabac=1 / ref=5 / deblock=1:-3:-3 / analyse=0x3:0x133 / me=umh / subme=7 / psy=1 / psy_rd=1.00:0.15 / mixed_ref=1 / me_range=16 / chroma_me=1 / trellis=1 / 8x8dct=1 / cqm=0 / deadzone=21,11 / fast_pskip=0 / chroma_qp_offset=-3 / threads=6 / lookahead_threads=1 / sliced_threads=0 / nr=0 / decimate=1 / interlaced=0 / bluray_compat=0 / constrained_intra=0 / bframes=3 / b_pyramid=2 / b_adapt=1 / b_bias=0 / direct=3 / weightb=1 / open_gop=0 / weightp=2 / keyint=240 / keyint_min=23 / scenecut=40 / intra_refresh=0 / rc_lookahead=40 / rc=2pass / mbtree=1 / bitrate=4078 / ratetol=1.0 / qcomp=0.60 / qpmin=0 / qpmax=69 / qpstep=4 / cplxblur=20.0 / qblur=0.5 / ip_ratio=1.40 / aq=1:1.00
Default: Yes
Forced: No

Audio
ID: 2
Format: AC-3
Format/Info: Audio Coding 3
Mode extension: CM (complete main)
Format settings, Endianness: Big
Codec ID: A_AC3
Duration: 22mn 46s
Bit rate mode: Constant
Bit rate: 640 Kbps
Channel(s): 6 channels
Channel positions: Front: L C R, Side: L R, LFE
Sampling rate: 48.0 KHz
Bit depth: 16 bits
Compression mode: Lossy
Stream size: 104 MiB (14%)
Title: AC3
Language: English
Default: No
Forced: No

Ostatní díly cca stejné.

Další screeny:
thumb
thumb
thumb
thumb
thumb
thumb
thumb
thumb
thumb
thumb
thumb
thumb
thumb
thumb
thumb
thumb
thumb
thumb
thumb
thumb
thumb
thumb
thumb

Seznam dílů:
1. série
1. Zrušená svatba (The One Where Monica Gets a Roommate) 23. 4. 2012
2. Složité vztahy (The One with the Sonogram at the End) 24. 4. 2012
3. Konečně ten pravý (The One with the Thumb) 25. 4. 2012
4. Náplast na smutek (The One with George Stephanopoulos) 26. 4. 2012
5. Praní prádla (The One with the East German Laundry Detergent) 27. 4. 2012
6. Životní šance (The One with the Butt) 30. 4. 2012
7. Bez proudu (The One with the Blackout) 2. 5. 2012
8. Loučení s babičkou (The One Where Nana Dies Twice) 3. 5. 2012
9. Oběť reklamy (The One Where Underdog Gets Away) 4. 5. 2012
10. Opička (The One with the Monkey) 7. 5. 2012
11. Paní Bingová (The One with Mrs. Bing) 9. 5. 2012
12. Holka nebo kluk? (The One with the Dozen Lasagnas) 10. 5. 2012
13. Bobule (The One with the Boobies) 11. 5. 2012
14. Na Svatého Valentýna (The One with the Candy Hearts) 14. 5. 2012
15. Večeře (The One with the Stoned Guy) 15. 5. 2012
16. Dvojčata (The One with Two Parts: Part 1) 16. 5. 2012
17. Správná rozhodnutí (The One with Two Parts: Part 2) 17. 5. 2012
18. Hráči pokeru (The One with All the Poker) 18. 5. 2012
19. Hledá se opičák (The One Where the Monkey Gets Away) 21. 5. 2012
20. Zubařům nevěřte (The One with the Evil Orthodontist) 22. 5. 2012
21. Falešná Monika (The One with the Fake Monica) 23. 5. 2012
22. Sny o milencích (The One with the Ick Factor) 24. 5. 2012
23. Narodil se kluk (The One with the Birth) 25. 5. 2012
24. Rossovy námluvy (The One Where Rachel Finds Out) 28. 5. 2012

Popis děje:
Láska, sex, přátelství, štěstí a smůla kolem nás aneb život je třeba brát s nadhledem.

Šestice blízkých přátel žijících v New Yorku prožívá radosti i starosti života. Zažívají velké lásky, románky a milostná zklamání. Pracovní úspěchy i kariérní nezdary ...
Seznam souborů:

Komentáře

Komentáře


preloader Načítám komentáře
Lego

Konec stránky

Domů | Torrenty | Žádosti | Upload | Pravidla | Hodnosti | Uživatelé | Statistika | Fórum | IRC