CzTorrent - 1. CZ Free Torrent Tracker - Sofie První: Byla nebyla jedna princezna / Sofia the First: Once Upon a Princess (2012)(CZ)

Menu

Statistika

Uživatelé Torrenty Seedeři Leecheři Peery Seed/Leech Přenesená data
204299 | 207019 116393 | 116652 433602 | 1196285 17381 | 58828 450979 | 1250339 2495% 600.219 PiB

Login

Obsah

Detaily torrentu

Detaily torrentu
Název:
Sofie První: Byla nebyla jedna princezna / Sofia the First: Once Upon a Princess (2012)(CZ)
Kategorie:
Filmy - kreslené
Přidán:
23.11.2013 22:09:47
Zkontrolován:
23.11.2013 22:09:47
Zdraví 100%
Provozovatel serveru nenese žádnou zodpovědnost za nahrané soubory. Odpovědnost nese vždy uploader souboru.
image
Sofie První: Byla nebyla jedna princezna / Sofia the First: Once Upon a Princess 2013 DVDRip.XviD CZ
INFO
Originalny nazev:  Sofia the First: Once Upon a Princess
Prelozeny nazev: Sofie První: Byla nebyla jedna princezna
Rok vydani: 2012
Delka: 90
Zvukove stopy:  Czech
Animovaný / Rodinný / Fantasy
USA, 2012, 90 min
Režie: Jamie Mitchell
Hudba: Kevin Kliesch
Hrají: Darcy Rose Byrnes, Ariel Winter, Jennifer Hale, Sara Ramirez, Wayne Brady, Tress MacNeille, Ashley Eckstein, Maxim Knight, Russi Taylor, Cozi Zuehlsdorff

Odkaz na csfd: http://www.csfd.cz/film/340652-sofie-prvni-byla-nebyla-jedna-princezna/galerie/?type=1
Odkaz na imdb: http://www.imdb.com/title/tt2136138/

OBSAH
Seznamte se s nejnovější Disneyho princeznou v kouzelné pohádce o Sofii, obyčejné holčičce, jejíž život se náhle změní, když si její matka vezme krále a ona se tak stane princeznou!

TRACKLIST
1.A.Royal.Mess.CZ
2.The.Shy.Princess.CZ
3.Blue.Ribbon.Bunnyo.CZ
4.The.Princess.Test.CZ
5.Two.To.Tangu.CZ

SCREEN
thumb thumb

MEDIA INFO
Format                                   : AVI
Format/Info                              : Audio Video Interleave
File size                                : 323 MiB
Duration                                 : 21mn 10s
Overall bit rate mode                    : Variable
Overall bit rate                         : 2 131 Kbps
Writing application                      : VirtualDubMod 1.5.4.1 (build 2178/release)
Writing library                          : VirtualDubMod build 2178/release

Video
ID                                       : 0
Format                                   : MPEG-4 Visual
Format profile                           : Advanced Simple@L5
Format settings, BVOP                    : No
Format settings, QPel                    : No
Format settings, GMC                     : No warppoints
Format settings, Matrix                  : Custom
Codec ID                                 : XVID
Codec ID/Hint                            : XviD
Duration                                 : 21mn 10s
Bit rate                                 : 2 004 Kbps
Width                                    : 720 pixels
Height                                   : 416 pixels
Display aspect ratio                     : 1.731
Frame rate                               : 25.000 fps
Color space                              : YUV
Chroma subsampling                       : 4:2:0
Bit depth                                : 8 bits
Scan type                                : Progressive
Compression mode                         : Lossy
Bits/(Pixel*Frame)                       : 0.268
Stream size                              : 304 MiB (94%)
Writing library                          : XviD 1.2.1 (UTC 2008-12-04)

Audio
ID                                       : 1
Format                                   : MPEG Audio
Format version                           : Version 1
Format profile                           : Layer 3
Mode                                     : Joint stereo
Mode extension                           : MS Stereo
Codec ID                                 : 55
Codec ID/Hint                            : MP3
Duration                                 : 21mn 10s
Bit rate mode                            : Variable
Bit rate                                 : 113 Kbps
Nominal bit rate                         : 128 Kbps
Channel count                            : 2 channels
Sampling rate                            : 48.0 KHz
Compression mode                         : Lossy
Stream size                              : 17.1 MiB (5%)
Alignment                                : Aligned on interleaves
Interleave, duration                     : 24 ms (0.60 video frame)
Interleave, preload duration             : 162 ms
Writing library                          : LAME3.98r
Encoding settings                        : -m j -V 4 -q 2 -lowpass 17 --abr 128
Language                                 : Czech

Format                                   : AVI
Format/Info                              : Audio Video Interleave
File size                                : 454 MiB
Duration                                 : 21mn 10s
Overall bit rate mode                    : Variable
Overall bit rate                         : 2 996 Kbps
Writing application                      : VirtualDubMod 1.5.4.1 (build 2178/release)
Writing library                          : VirtualDubMod build 2178/release

Video
ID                                       : 0
Format                                   : MPEG-4 Visual
Format profile                           : Advanced Simple@L5
Format settings, BVOP                    : No
Format settings, QPel                    : No
Format settings, GMC                     : No warppoints
Format settings, Matrix                  : Custom
Codec ID                                 : XVID
Codec ID/Hint                            : XviD
Duration                                 : 21mn 10s
Bit rate                                 : 2 869 Kbps
Width                                    : 720 pixels
Height                                   : 416 pixels
Display aspect ratio                     : 1.731
Frame rate                               : 25.000 fps
Color space                              : YUV
Chroma subsampling                       : 4:2:0
Bit depth                                : 8 bits
Scan type                                : Progressive
Compression mode                         : Lossy
Bits/(Pixel*Frame)                       : 0.383
Stream size                              : 434 MiB (96%)
Writing library                          : XviD 1.2.1 (UTC 2008-12-04)

Audio
ID                                       : 1
Format                                   : MPEG Audio
Format version                           : Version 1
Format profile                           : Layer 3
Mode                                     : Joint stereo
Mode extension                           : MS Stereo
Codec ID                                 : 55
Codec ID/Hint                            : MP3
Duration                                 : 21mn 10s
Bit rate mode                            : Variable
Bit rate                                 : 114 Kbps
Nominal bit rate                         : 128 Kbps
Channel count                            : 2 channels
Sampling rate                            : 48.0 KHz
Compression mode                         : Lossy
Stream size                              : 17.3 MiB (4%)
Alignment                                : Aligned on interleaves
Interleave, duration                     : 24 ms (0.60 video frame)
Interleave, preload duration             : 161 ms
Writing library                          : LAME3.98r
Encoding settings                        : -m j -V 4 -q 2 -lowpass 17 --abr 128
Language                                 : Czech

Komentáře

Komentáře

Celkem komentářů: 11 (Přihlašte se pro jejich zobrazení)

Lego

Konec stránky

Domů | Torrenty | Podpora | Statistika | Pravidla | FAQ | Uživatelé | Fórum | IRC