CzTorrent - 1. CZ Free Torrent Tracker - Tomáš Klus - Pánu Bohu do oken

Menu

Statistika

Uživatelé Torrenty Seedeři Leecheři Peery Seed/Leech Přenesená data
171607 | 180098 115127 | 116652 653747 | 1189400 22160 | 58828 675903 | 1234693 2950% 19392.99 PiB

Login

Náš Wedos - nejlepší český webhosting

Obsah

Detaily torrentu

Detaily torrentu
Název:
Tomáš Klus - Pánu Bohu do oken
Kategorie:
Videoklipy
Přidán:
25.4.2012 23:07:31
Zkontrolován:
25.4.2012 23:07:31
Zdraví 98%
Provozovatel serveru nenese žádnou zodpovědnost za nahrané soubory. Odpovědnost nese vždy uploader souboru.
Interpret: Tomáš Klus
Rok vydání: 2012
Délka: 3:32
Žánr: muzika
Odkaz: [url]image[/url]

thumb

General
Complete name: F:\Vuze 2-Vuze 2-Vuze 2-Vuze 2\Tomáš Klus - Pánubohu do oken.mpg
Format: MPEG-PS
File size: 94.5 MiB
Duration: 3mn 32s
Overall bit rate: 3 729 Kbps

Video
ID: 224 (0xE0)
Format: MPEG Video
Format version: Version 2
Format profile: Main@Main
Format settings, BVOP: Yes
Format settings, Matrix: Default
Format settings, GOP: M=3, N=15
Duration: 3mn 32s
Bit rate mode: Variable
Bit rate: 3 399 Kbps
Nominal bit rate: 6 800 Kbps
Width: 352 pixels
Height: 576 pixels
Display aspect ratio: 16:9
Frame rate: 25.000 fps
Standard: PAL
Color space: YUV
Chroma subsampling: 4:2:0
Bit depth: 8 bits
Scan type: Interlaced
Scan order: Top Field First
Compression mode: Lossy
Bits/(Pixel*Frame): 0.670
Stream size: 86.1 MiB (91%)

Audio
ID: 128 (0x80)
Format: AC-3
Format/Info: Audio Coding 3
Mode extension: CM (complete main)
Duration: 3mn 32s
Bit rate mode: Constant
Bit rate: 256 Kbps
Channel(s): 2 channels
Channel positions: Front: L R
Sampling rate: 48.0 KHz
Bit depth: 16 bits
Compression mode: Lossy
Delay relative to video: -76ms
Stream size: 6.49 MiB (7%)

Novy Mr. Kryl !

Pisen ... PRAVDY !!!
Seznam souborů:

Komentáře

Komentáře


preloader Načítám komentáře
Lego

Konec stránky

Domů | Torrenty | Žádosti | Upload | Pravidla | Hodnosti | Uživatelé | Statistika | Fórum | IRC