CzTorrent - 1. CZ Free Torrent Tracker - Tupac: Vzkříšení / Tupac: Resurrection

Menu

CEX.IO

Statistika

Uživatelé Torrenty Seedeři Leecheři Peery Seed/Leech Přenesená data
204925 | 207019 117400 | 117413 1029144 | 1278663 49445 | 59026 1078587 | 1337461 2081% 623.203 PiB

Login

pbmining.com

Obsah

Detaily torrentu

Detaily torrentu
Název:
Tupac: Vzkříšení / Tupac: Resurrection
Kategorie:
Filmy - dokument
Přidán:
10.8.2010 11:01:15
Zkontrolován:
10.8.2010 11:01:15
Zdraví 100%
Provozovatel serveru nenese žádnou zodpovědnost za nahrané soubory. Odpovědnost nese vždy uploader souboru.
Jazyk: ENG
Titulky: ANO

Odkaz na CSFD: http://www.csfd.cz/film/150867-tupac-vzkriseni/
Rok vydání: 2003
Dlzka: 112 min
Obal:
Zaner:Dokument

Dokument vypráví "od kolébky až do hrobu" životní příběh rappera Tupaca Shakura, příběh vycházející hvězdy rapové scény, o jejíž rychlé zapadnutí se postaralo pár výstřelů na ulici v Las Vegas. Hudební doprovod - Eminem.

thumb

Media info:
General
Complete name                    : /home/sebo/Video/filmy/2pac Resurrection/tupac resurrection.avi
Format                           : AVI
Format/Info                      : Audio Video Interleave
File size                        : 700 MiB
Duration                         : 1h 52mn
Overall bit rate                 : 868 Kbps
Writing application              : VirtualDubMod 1.5.4.1 (build 2178/release)
Writing library                  : VirtualDubMod build 2178/release

Video
ID                               : 0
Format                           : MPEG-4 Visual
Format profile                   : Advanced Simple@L5
Format settings, BVOP            : Yes
Format settings, QPel            : No
Format settings, GMC             : No warppoints
Format settings, Matrix          : Custom
Codec ID                         : XVID
Codec ID/Hint                    : XviD
Duration                         : 1h 52mn
Bit rate                         : 727 Kbps
Width                            : 512 pixels
Height                           : 304 pixels
Display aspect ratio             : 1.684
Frame rate                       : 23.976 fps
Color space                      : YUV
Chroma subsampling               : 4:2:0
Bit depth                        : 8 bits
Scan type                        : Progressive
Bits/(Pixel*Frame)               : 0.195
Stream size                      : 587 MiB (84%)
Writing library                  : XviD 1.0.2 (UTC 2004-08-29)

Audio
ID                               : 1
Format                           : MPEG Audio
Format version                   : Version 1
Format profile                   : Layer 3
Mode                             : Joint stereo
Mode extension                   : MS Stereo
Codec ID                         : 55
Codec ID/Hint                    : MP3
Duration                         : 1h 52mn
Bit rate mode                    : Variable
Bit rate                         : 128 Kbps
Channel(s)                       : 2 channels
Sampling rate                    : 48.0 KHz
Stream size                      : 103 MiB (15%)
Alignment                        : Aligned on interleaves
Interleave, duration             : 24 ms (0.58 video frame)
Interleave, preload duration     : 144 ms
Writing library                  : LAME3.90.
Encoding settings                : -m j -V 4 -q 2 -lowpass 17.6 --abr 128
Language                         : English

Komentáře

Komentáře

Celkem komentářů: 5 (Přihlašte se pro jejich zobrazení)

Lego

Konec stránky

Domů | Torrenty | Podpora | Statistika | Pravidla | FAQ | Uživatelé | Fórum | IRC