CzTorrent - 1. CZ Free Torrent Tracker - Twilight sága: Rozbřesk - 2. část / The Twilight.Saga: Breaking Dawn - Part 2 (2012) [TS]

Menu

CEX.IO

Statistika

Uživatelé Torrenty Seedeři Leecheři Peery Seed/Leech Přenesená data
204536 | 207019 117334 | 117343 596300 | 1278663 24782 | 59026 621076 | 1337461 2406% 622.563 PiB

Login

pbmining.com

Obsah

Detaily torrentu

Detaily torrentu
Název:
Twilight sága: Rozbřesk - 2. část / The Twilight.Saga: Breaking Dawn - Part 2 (2012) [TS]
Kategorie:
Filmy
Přidán:
20.11.2012 14:09:16
Zkontrolován:
20.11.2012 14:09:16
Zdraví 99%
Provozovatel serveru nenese žádnou zodpovědnost za nahrané soubory. Odpovědnost nese vždy uploader souboru.
Jazyk: Anglicky
Titulky: na tuto verziu urcite budu coskoro ceske
Kvalita zvuku: AC3, 192 kbps, 2 channels ENGLISH DIRECT AUDIO
Kvalita videa: 680 pixels  308 pixels AVC
Odkaz na CSFD: http://www.csfd.cz/film/281757-twilight-saga-rozbresk-2-cast/
Rok vydání: 2012
Délka: 1h 44m 18s
Obal:
image
Žánr: Dobrodružný / Drama / Fantasy / Romantický
Screen:
thumb

General
Unique ID: 195754250018510579603827847282402701497 (0x9344E5ADED6A1C3C8FDD637EF64EB0B9)
Complete name: C:\NVIDIA\The.Twilight.Saga.Breaking.Dawn - Part 2.2012.TS.x264.AC3-LiFT\The.Twilight.Saga.Breaking.Dawn - Part 2.2012.TS.x264.AC3-LiFT.mkv
Format: Matroska
File size: 1.05 GiB
Duration: 1h 44mn
Overall bit rate: 1 442 Kbps
Encoded date: UTC 2012-11-19 19:42:32
Writing application: mkvmerge v5.8.0 ('No Sleep / Pillow';) built on Sep  2 2012 15:37:04
Writing library: libebml v1.2.3 + libmatroska v1.3.0

Video
ID: 1
Format: AVC
Format/Info: Advanced Video Codec
Format profile: High@L3.0
Format settings, CABAC: Yes
Format settings, ReFrames: 3 frames
Format settings, GOP: N=1
Muxing mode: Header stripping
Codec ID: V_MPEG4/ISO/AVC
Duration: 1h 44mn
Bit rate: 1 249 Kbps
Width: 680 pixels
Height: 308 pixels
Display aspect ratio: 2.2:1
Frame rate: 23.976 fps
Color space: YUV
Chroma subsampling: 4:2:0
Bit depth: 8 bits
Scan type: Progressive
Bits/(Pixel*Frame): 0.249
Stream size: 911 MiB (85%)
Writing library: x264 core 125 r2200 999b753
Encoding settings: cabac=1 / ref=3 / deblock=1:0:0 / analyse=0x3:0x111 / me=hex / subme=7 / psy=1 / psy_rd=1.00:0.00 / mixed_ref=1 / me_range=16 / chroma_me=1 / trellis=1 / 8x8dct=1 / cqm=0 / deadzone=21,11 / fast_pskip=1 / chroma_qp_offset=-2 / threads=6 / lookahead_threads=1 / sliced_threads=0 / nr=0 / decimate=1 / interlaced=0 / bluray_compat=0 / constrained_intra=0 / bframes=3 / b_pyramid=0 / b_adapt=1 / b_bias=0 / direct=1 / weightb=1 / open_gop=0 / weightp=2 / keyint=240 / keyint_min=23 / scenecut=40 / intra_refresh=0 / rc_lookahead=40 / rc=2pass / mbtree=1 / bitrate=1249 / ratetol=1.0 / qcomp=0.60 / qpmin=10 / qpmax=51 / qpstep=4 / cplxblur=20.0 / qblur=0.5 / ip_ratio=1.40 / aq=1:1.00

Audio
ID: 2
Format: AC-3
Format/Info: Audio Coding 3
Mode extension: CM (complete main)
Muxing mode: Header stripping
Codec ID: A_AC3
Duration: 1h 44mn
Bit rate mode: Constant
Bit rate: 192 Kbps
Channel(s): 2 channels
Channel positions: Front: L R
Sampling rate: 48.0 KHz
Bit depth: 16 bits
Compression mode: Lossy
Stream size: 143 MiB (13%)

Twilight sága: Úsvit - 2. čast

Twilight Saga: Breaking Dawn: Part Two, The
Twilight sága: Rozbřesk - 2. část
Dobrodružný / Drama / Fantasy / Romantický
USA, 2012, 115 min

Režie: Bill Condon
Hudba: Carter Burwell
Hrají: Kristen Stewart, Robert Pattinson, Maggie Grace, Taylor Lautner, Dakota Fanning, Ashley Greene, Jackson Rathbone, Kellan Lutz, Nikki Reed, Peter Facinelli, Elizabeth Reaser, Billy Burke, Anna Kendrick, Booboo Stewart, Michael Sheen, Jamie Campbell Bower, Christopher Heyerdahl, Cameron Bright, Chaske Spencer, Julia Jones, Daniel Cu… (více)
Obsah
zobrazit všechny obsahy
Závěrečná část světoznámé upírské ságy nás naposledy zavede do světa, kde upíři a vlkodlaci bojují nejen o svou lásku, ale i o vlastní životy. Novorozená upírka Bella a její manžel Edward mohou být konečně navždy spolu a šťastní, ale příchod jejich pozoruhodné dcery Renesmee uvede do pohybu nebezpečný řetězec událostí, které pro ně mohou skončit katastrofou. Rodina Cullenových se ale rozhodne bojovat a kontaktuje přátele z celého světa, aby spojili své síly a postavili se vládnoucímu rodu Volturiových. Velkolepá bitva, kde vítězství může vše změnit, právě…

thumb thumb


UPLOAD NIE JE DUPE, predosly tzv. TELESYNC je velmi zla CAM verzia s CAM zvukom a nie DIRECT ZVUKOM ktore si pravidla oznacenia TELESYNC vyzaduju, v predoslej verzii si uzijete ludsky smiech a suchot, zvuky z kina a to ze to UPLOADER oznacil ako TS je odsudeniahodne, toto je kvalitna TELESYNC verzia s KRASNYM KVALITNYM DIRECT ZVUKOM, tak si ju Prosim uzite a setrite si seedbody, ja toto robim cisto len z principu aby si ten predosly "uploader" uvedomil ze takto sa seedbody nenahanaju, prijemne pozeranie.

Komentáře

Komentáře

Celkem komentářů: 9 (Přihlašte se pro jejich zobrazení)

Lego

Konec stránky

Domů | Torrenty | Podpora | Statistika | Pravidla | FAQ | Uživatelé | Fórum | IRC