CzTorrent - 1. CZ Free Torrent Tracker - Twilight sága: Rozbřesk - 2. část / The Twilight Saga: Breaking Dawn - Part 2 (2012) [TS]

Menu

Statistika

Uživatelé Torrenty Seedeři Leecheři Peery Seed/Leech Přenesená data
204496 | 207019 116723 | 116799 657740 | 1236954 26280 | 58828 684018 | 1289109 2503% 612.467 PiB

Login

Obsah

Detaily torrentu

Detaily torrentu
Název:
Twilight sága: Rozbřesk - 2. část / The Twilight Saga: Breaking Dawn - Part 2 (2012) [TS]
Kategorie:
Filmy
Přidán:
21.11.2012 22:40:53
Zkontrolován:
21.11.2012 22:40:53
Zdraví 100%
Provozovatel serveru nenese žádnou zodpovědnost za nahrané soubory. Odpovědnost nese vždy uploader souboru.
Jazyk: Anglicky
Titulky: zatial niesu ale tato obrazova a zvukova verzia je BOMBA a coskoro urcite budu
Kvalita zvuku: Duration: 1h 42mn Bit rate mode Constant Bit rate 128 Kbps Channel(s) 2 channels Sampling rate                    : 44.1 KHz
Kvalita videa: Codec ID/Hint XviD Duration: 1h 42mn Bit rate 1 349 Kbps Width: 640 pixels Height: 256 pixels
Odkaz na CSFD: http://www.csfd.cz/film/281757-twilight-saga-rozbresk-2-cast/
Rok vydání: 2012
Délka: 1h 42mn {nechyba nic, iba zaverecne titulky)
Obal:
image
Žánr: Dobrodružný / Drama / Fantasy / Romantický
Screen:
thumb thumb thumb

General
Complete name: C:\NVIDIA\The.Twilight.Saga.Breaking.Dawn.Part.2.2012.TS.NEWSOURCE.XViD-26K\The.Twilight.Saga.Breaking.Dawn.Part.2.2012.TS.NEWSOURCE.XViD-26K.avi
Format: AVI
Format/Info: Audio Video Interleave
File size: 1.07 GiB
Duration: 1h 42mn
Overall bit rate: 1 487 Kbps
Writing library: VirtualDub build 32842/release

Video
ID: 0
Format: MPEG-4 Visual
Format profile: Advanced Simple@L5
Format settings, BVOP: 2
Format settings, QPel: No
Format settings, GMC: No warppoints
Format settings, Matrix: Default (H.263)
Muxing mode: Packed bitstream
Codec ID: XVID
Codec ID/Hint: XviD
Duration: 1h 42mn
Bit rate: 1 349 Kbps
Width: 640 pixels
Height: 256 pixels
Display aspect ratio: 2.500
Frame rate: 25.000 fps
Color space: YUV
Chroma subsampling: 4:2:0
Bit depth: 8 bits
Scan type: Progressive
Compression mode: Lossy
Bits/(Pixel*Frame): 0.329
Stream size: 990 MiB (91%)
Writing library: XviD 64

Audio
ID: 1
Format: MPEG Audio
Format version: Version 1
Format profile: Layer 3
Codec ID: 55
Codec ID/Hint: MP3
Duration: 1h 42mn
Bit rate mode: Constant
Bit rate: 128 Kbps
Channel(s): 2 channels
Sampling rate: 44.1 KHz
Compression mode: Lossy
Delay relative to video: 9ms
Stream size: 93.9 MiB (9%)
Alignment: Split accross interleaves
Interleave, duration: 40 ms (1.00 video frame)
Interleave, preload duration: 500 ms

Twilight sága: Úsvit - 2. čast

Twilight Saga: Breaking Dawn: Part Two, The
Twilight sága: Rozbřesk - 2. část
Dobrodružný / Drama / Fantasy / Romantický
USA, 2012, 115 min

Režie: Bill Condon
Hudba: Carter Burwell
Hrají: Kristen Stewart, Robert Pattinson, Maggie Grace, Taylor Lautner, Dakota Fanning, Ashley Greene, Jackson Rathbone, Kellan Lutz, Nikki Reed, Peter Facinelli, Elizabeth Reaser, Billy Burke, Anna Kendrick, Booboo Stewart, Michael Sheen, Jamie Campbell Bower, Christopher Heyerdahl, Cameron Bright, Chaske Spencer, Julia Jones, Daniel Cu… (více)
Obsah
zobrazit všechny obsahy
Závěrečná část světoznámé upírské ságy nás naposledy zavede do světa, kde upíři a vlkodlaci bojují nejen o svou lásku, ale i o vlastní životy. Novorozená upírka Bella a její manžel Edward mohou být konečně navždy spolu a šťastní, ale příchod jejich pozoruhodné dcery Renesmee uvede do pohybu nebezpečný řetězec událostí, které pro ně mohou skončit katastrofou. Rodina Cullenových se ale rozhodne bojovat a kontaktuje přátele z celého světa, aby spojili své síly a postavili se vládnoucímu rodu Volturiových. Velkolepá bitva, kde vítězství může vše změnit, právě…

PROSIM CITAJTE: Ja viem ze som pred 2 dnami uploadol TELESYNC strednej kvality ale ked si pozriete ako TATO VERZIA VYZERA je to UZASNE, skoro ako kedysi TELECINE, je kompletna s krasnym farebnym obrazom a zvukom, lepsia verzia ani R5 NEBUDE(studi nerobi R5) takze by som Vas rad poprosil o schvalenie tohto torrentu bez akehokolvek naroku na seedbody, lebo toto je posledna cast Twilightu a LEPSIE AKO TOTO mesiace neuvidia, kludne sa vzdam aj 2000 seedbodov len aby si pozreli aka perfektna tato verzia je, a ak budu titulky, verte ze budu najskor na tuto verziu, poprosim Vas prediskutovat tento "duplikat" aj s majitelom ak budu problemy, vopred dik :)

Komentáře

Komentáře

Celkem komentářů: 42 (Přihlašte se pro jejich zobrazení)

Lego

Konec stránky

Domů | Torrenty | Podpora | Statistika | Pravidla | FAQ | Uživatelé | Fórum | IRC