CzTorrent - 1. CZ Free Torrent Tracker - Útěk z MS-1 / Lockout (2012) [720p]

Menu

CEX.IO

Statistika

Uživatelé Torrenty Seedeři Leecheři Peery Seed/Leech Přenesená data
204934 | 207019 117417 | 117432 957661 | 1278663 45270 | 59026 1002928 | 1337461 2115% 623.507 PiB

Login

pbmining.com

Obsah

Detaily torrentu

Detaily torrentu
Název:
Útěk z MS-1 / Lockout (2012) [720p]
Kategorie:
HD
Přidán:
22.9.2012 23:06:42
Zkontrolován:
22.9.2012 23:06:42
Zdraví 100%
Provozovatel serveru nenese žádnou zodpovědnost za nahrané soubory. Odpovědnost nese vždy uploader souboru.

image



Lidstvo našlo způsob, jak ochránit svět před zločinci. Ti nejhorší z nejhorších jsou drženi na místě, ze kterého není úniku. Mimo Zemi, uprostřed hlubokého vesmíru. Prezidentova dcera Emilie Warnock navštíví v rámci humanitární mise vesmírnou věznici MS One. Ale krvavá vzpoura vězňů z Emilie učiní to nejcennější rukojmí. Ven ji může dostat jen jediný člověk. Bývalý špičkový vládní agent Snow je svéhlavý a nekompromisní. Jeho současná pozice na špionážním trhu je, mírně řečeno, špatná - čelí obvinění ze spiknutí proti USA. Od prezidenta dostává jedinečnou nabídku: nový život a svobodu výměnou za záchranu první dcery Spojených států. Jenže v sázce je mnohem více…







Délka: 1h 35mn




Datum vydání: 2012



Audio: DTS Eng, Czech 5.1



Titulky: Eng, Czech




Screen:
thumb
thumb





ČSFD



Mediainfo:
[b]Format
: Matroska
Format version: Version 2
File size: 4.37 GiB
Duration: 1h 35mn
Overall bit rate: 6 559 Kbps
Encoded date: UTC 2012-09-22 05:42:48
Writing application: mkvmerge v5.2.0 ('I can't explain';) built on Dec 18 2011 18:12:03
Writing library: libebml v1.2.3 + libmatroska v1.3.0

Video
ID: 1
Format: AVC
Format/Info: Advanced Video Codec
Format profile: High@L4.1
Format settings, CABAC: Yes
Format settings, ReFrames: 12 frames
Codec ID: V_MPEG4/ISO/AVC
Duration: 1h 35mn
Bit rate: 4 600 Kbps
Width: 1 280 pixels
Height: 536 pixels
Display aspect ratio: 2.40:1
Frame rate mode: Constant
Frame rate: 23.976 fps
Color space: YUV
Chroma subsampling: 4:2:0
Bit depth: 8 bits
Scan type: Progressive
Bits/(Pixel*Frame): 0.280
Stream size: 2.98 GiB (68%)
Writing library: x264 core 125 r2200 999b753
Encoding settings: cabac=1 / ref=12 / deblock=1:-3:-3 / analyse=0x3:0x113 / me=umh / subme=10 / psy=1 / psy_rd=1.10:0.00 / mixed_ref=1 / me_range=32 / chroma_me=1 / trellis=2 / 8x8dct=1 / cqm=0 / deadzone=21,11 / fast_pskip=0 / chroma_qp_offset=-2 / threads=18 / lookahead_threads=3 / sliced_threads=0 / nr=0 / decimate=0 / interlaced=0 / bluray_compat=0 / constrained_intra=0 / bframes=8 / b_pyramid=2 / b_adapt=2 / b_bias=0 / direct=3 / weightb=1 / open_gop=0 / weightp=2 / keyint=240 / keyint_min=24 / scenecut=40 / intra_refresh=0 / rc_lookahead=120 / rc=2pass / mbtree=1 / bitrate=4600 / ratetol=1.0 / qcomp=0.70 / qpmin=0 / qpmax=69 / qpstep=4 / cplxblur=20.0 / qblur=0.5 / ip_ratio=1.40 / aq=1:1.10
Language: English
Default: Yes
Forced: No

Audio #1
ID: 2
Format: AC-3
Format/Info: Audio Coding 3
Mode extension: CM (complete main)
Format settings, Endianness: Big
Codec ID: A_AC3
Duration: 1h 35mn
Bit rate mode: Constant
Bit rate: 448 Kbps
Channel(s): 6 channels
Channel positions: Front: L C R, Side: L R, LFE
Sampling rate: 48.0 KHz
Bit depth: 16 bits
Compression mode: Lossy
Stream size: 305 MiB (7%)
Title: cz
Language: Czech
Default: Yes
Forced: No

Audio #2
ID: 3
Format: DTS
Format/Info: Digital Theater Systems
Codec ID: A_DTS
Duration: 1h 35mn
Bit rate mode: Constant
Bit rate: 1 510 Kbps
Channel(s): 6 channels
Channel positions: Front: L C R, Side: L R, LFE
Sampling rate: 48.0 KHz
Bit depth: 24 bits
Compression mode: Lossy
Stream size: 1.01 GiB (23%)
Title: en
Language: English
Default: No
Forced: No

Text #1
ID: 4
Format: UTF-8
Codec ID: S_TEXT/UTF8
Codec ID/Info: UTF-8 Plain Text
Title: en
Language: English
Default: No
Forced: No

Text #2
ID: 5
Format: UTF-8
Codec ID: S_TEXT/UTF8
Codec ID/Info: UTF-8 Plain Text
Title: cz
Language: Czech
Default: Yes
Forced                                   : No[/b]





Komentáře

Komentáře

Celkem komentářů: 8 (Přihlašte se pro jejich zobrazení)

Lego

Konec stránky

Domů | Torrenty | Podpora | Statistika | Pravidla | FAQ | Uživatelé | Fórum | IRC