CzTorrent - 1. CZ Free Torrent Tracker - Black Summer - 1. série [WebRip][HEVC][720p]

Menu

Statistika

Uživatelé Torrenty Seedeři Leecheři Peery Seed/Leech Přenesená data
346665 | 346732 118127 | 122208 1016983 | 1541316 23725 | 49211 1040703 | 1590355 4287% 1472.322 PiB

Login

Bitcoin Exchange CEX.IO

Obsah

Detaily torrentu

Detaily torrentu
Název:
Black Summer - 1. série [WebRip][HEVC][720p]
Kategorie:
Seriály
Přidán:
17.5.2019 13:02:12
Zkontrolován:
17.5.2019 15:06:49
Zdraví 100%
Provozovatel serveru nenese žádnou zodpovědnost za nahrané soubory. Odpovědnost nese vždy uploader souboru.
Jazyk: English
Titulky: České
Odkaz na CSFD: https://www.csfd.cz/film/706170-black-summer/prehled/
Rok vydání: 2019
Délka: minutáž: 8 x cca 21 - 45 min.

Obal:image

Žánr: Akční / Drama / Horor / Thriller

Screen:thumbthumb

Matka, která přišla o dceru, se vydává na trýznivou cestu a nezastaví ji nic, dokud svou dceru nenajde. Cestou ji provází skupinka amerických uprchlíků, kteří se společně vydávají do světa, kde panuje zombie apokalypsa.

Epizody:
Black Summer S01E01 Human Flow
Black Summer S01E02 Drive  
Black Summer S01E03 Summer School
Black Summer S01E04 Alone
Black Summer S01E05 Diner
Black Summer S01E06 Heist
Black Summer S01E07 The Tunnel
Black Summer S01E08 The Stadium

General
Unique ID                                : 229404255271447447589205682699219899898 (0xAC95A707998B0718BA1707FE90E615FA)
Complete name                            : D:\UPLOAD\Black.Summer.S01.720p.10bit.WEBRip.2CH.x265.HEVC-PSA\Black.Summer.S01E01.Human.Flow.720p.10bit.WEBRip.2CH.x265.HEVC-PSA.mkv
Format                                   : Matroska
Format version                           : Version 4 / Version 2
File size                                : 225 MiB
Duration                                 : 44 min 41 s
Overall bit rate                         : 704 kb/s
Movie name                               : PSArips.com | Black.Summer.S01E01.Human.Flow.720p.10bit.WEBRip.2CH.x265.HEVC-PSA
Encoded date                             : UTC 2019-04-12 09:14:41
Writing application                      : mkvmerge v32.0.0 ('Astral Progressions') 64-bit
Writing library                          : libebml v1.3.7 + libmatroska v1.5.0

Video
ID                                       : 1
Format                                   : HEVC
Format/Info                              : High Efficiency Video Coding
Format profile                           : Main 10@L3.1@Main
Codec ID                                 : V_MPEGH/ISO/HEVC
Duration                                 : 44 min 41 s
Bit rate                                 : 640 kb/s
Width                                    : 1 280 pixels
Height                                   : 640 pixels
Display aspect ratio                     : 2.000
Frame rate mode                          : Constant
Frame rate                               : 23.976 (24000/1001) FPS
Color space                              : YUV
Chroma subsampling                       : 4:2:0
Bit depth                                : 10 bits
Bits/(Pixel*Frame)                       : 0.033
Stream size                              : 205 MiB (91%)
Default                                  : Yes
Forced                                   : No

Audio
ID                                       : 2
Format                                   : AAC
Format/Info                              : Advanced Audio Codec
Format profile                           : HE-AAC / LC
Format settings                          : Explicit
Codec ID                                 : A_AAC-2
Duration                                 : 44 min 40 s
Bit rate                                 : 62.0 kb/s
Channel(s)                               : 2 channels
Channel positions                        : Front: L R
Sampling rate                            : 48.0 kHz / 24.0 kHz
Frame rate                               : 23.438 FPS (1024 SPF)
Compression mode                         : Lossy
Delay relative to video                  : 23 ms
Stream size                              : 19.8 MiB (9%)
Language                                 : English
Default                                  : Yes
Forced                                   : No

 

Komentáře

Komentáře

Celkem komentářů: 2 (Přihlašte se pro jejich zobrazení)

Lego

Konec stránky

Domů | Torrenty | Podpora | Statistika | Pravidla | FAQ | Uživatelé | Fórum | IRC