CzTorrent - 1. CZ Free Torrent Tracker - Rubicon - 1.série (EN)[TvRip]

Menu

Statistika

Uživatelé Torrenty Seedeři Leecheři Peery Seed/Leech Přenesená data
333959 | 334126 118231 | 122208 926457 | 1483751 24971 | 48010 951426 | 1529885 3710% 1358.868 PiB

Login

Bitcoin Exchange CEX.IO

Obsah

Detaily torrentu

Detaily torrentu
Název:
Rubicon - 1.série (EN)[TvRip]
Kategorie:
Seriály
Přidán:
11.1.2019 21:23:00
Zkontrolován:
11.1.2019 21:32:13
Zdraví 100%
Provozovatel serveru nenese žádnou zodpovědnost za nahrané soubory. Odpovědnost nese vždy uploader souboru.
Jazyk: English
Titulky: České
Odkaz na CSFD: https://www.csfd.cz/film/255610-rubicon/prehled/
Rok vydání: 2010
Délka: minutáž 13 x cca 42 - 46 min.

Obal:image

Žánr: Krimi / Drama / Mysteriózní / Thriller

Screen:thumbthumb

Seriál točící se kolem americké agentury zabývající se různými šiframi, kódy, spiknutími a tajnými transakcemi. Jeden pracovník si všimne nápadného výsledku vyluštěné křížovky a v jeho okolí začnou podivně umírat lidé...

Epizody:
Rubicon S01E01 Gone in the Teeth
Rubicon S01E02 The First Day of School
Rubicon S01E03 Keep the Ends Out
Rubicon S01E04 The Outsider
Rubicon S01E05 Connect the Dots
Rubicon S01E06 Look to the Ant
Rubicon S01E07 The Truth Will Out
Rubicon S01E08 Caught in the Suck
Rubicon S01E09 No Honesty in Men
Rubicon S01E10 In Whom We Trust
Rubicon S01E11 A Good Day´s Work
Rubicon S01E12 Wayward Sons
Rubicon S01E13 You Never Can Win

General
Complete name                            : D:\UPLOAD\Rubicon (2010)\Rubicon S01E01 Gone in the Teeth.avi
Format                                   : AVI
Format/Info                              : Audio Video Interleave
File size                                : 350 MiB
Duration                                 : 44 min 28 s
Overall bit rate mode                    : Variable
Overall bit rate                         : 1 102 kb/s
Writing application                      : transcode-1.0.4
IsTruncated                              : Yes

Video
ID                                       : 0
Format                                   : MPEG-4 Visual
Format profile                           : Advanced Simple@L5
Format settings                          : BVOP2
Format settings, BVOP                    : 2
Format settings, QPel                    : No
Format settings, GMC                     : No warppoints
Format settings, Matrix                  : Default (H.263)
Codec ID                                 : XVID
Codec ID/Hint                            : XviD
Duration                                 : 44 min 28 s
Bit rate                                 : 943 kb/s
Width                                    : 624 pixels
Height                                   : 352 pixels
Display aspect ratio                     : 16:9
Frame rate                               : 23.976 (24000/1001) FPS
Color space                              : YUV
Chroma subsampling                       : 4:2:0
Bit depth                                : 8 bits
Scan type                                : Progressive
Compression mode                         : Lossy
Bits/(Pixel*Frame)                       : 0.179
Stream size                              : 300 MiB (86%)
Writing library                          : XviD 1.2.1 (UTC 2008-12-04)

Audio
ID                                       : 1
Format                                   : MPEG Audio
Format version                           : Version 1
Format profile                           : Layer 3
Codec ID                                 : 55
Codec ID/Hint                            : MP3
Duration                                 : 44 min 28 s
Bit rate mode                            : Variable
Bit rate                                 : 128 kb/s
Channel(s)                               : 2 channels
Sampling rate                            : 48.0 kHz
Compression mode                         : Lossy
Stream size                              : 46.4 MiB (13%)
Alignment                                : Aligned on interleaves
Interleave, duration                     : 24  ms (0.58 video frame)

 

Komentáře

Komentáře

Celkem komentářů: 0 (Přihlašte se pro jejich zobrazení)

Lego

Konec stránky

Domů | Torrenty | Podpora | Statistika | Pravidla | FAQ | Uživatelé | Fórum | IRC