CzTorrent - 1. CZ Free Torrent Tracker - Skjelvet (2018)(NOR)[WebRip][720p]

Menu

Statistika

Uživatelé Torrenty Seedeři Leecheři Peery Seed/Leech Přenesená data
342251 | 342391 117560 | 122208 703156 | 1541316 13271 | 49211 716423 | 1590355 5298% 1427.641 PiB

Login

Bitcoin Exchange CEX.IO

Obsah

Detaily torrentu

Detaily torrentu
Název:
Skjelvet (2018)(NOR)[WebRip][720p]
Kategorie:
Filmy
Přidán:
11.1.2019 18:19:13
Zkontrolován:
11.1.2019 18:30:17
Zdraví 100%
Provozovatel serveru nenese žádnou zodpovědnost za nahrané soubory. Odpovědnost nese vždy uploader souboru.
Jazyk: Norwegian
Titulky: České
Odkaz na CSFD: https://www.csfd.cz/film/646738-skjelvet/videa/
Rok vydání: 2018
Délka: 1:43:27

Obal:image

Žánr: Drama / Thriller

Screen:thumbthumb

Příběh je založen na skutečné události, kdy v roce 1904 zemětřesení o velikosti 5,4 stupně Richterovy stupnice otřáslo hlavním městem Norska Oslem. Zemětřesení mělo tehdy svoje epicentrum v "Oslo Graben", které se rozkládá pod norským hlavním městem. Geologické průzkumy ukazují, že se začaly objevovat známky, kdy můžeme čekat další větší zemětřesení, a Oslo je tak opět v nebezpečí. Příběh obyčejných lidí je zachycen v děsivé sérii událostí, jak se pokoušejí přežít.

General
Unique ID                                : 251320477609229005320503067999496884823 (0xBD1290377A71865C8084773AE300D257)
Complete name                            : D:\UPLOAD\The.Quake.720p.WEB-DL.H264.AC3-EVO\The.Quake.720p.WEB-DL.H264.AC3-EVO.mkv
Format                                   : Matroska
Format version                           : Version 2
File size                                : 1.57 GiB
Duration                                 : 1 h 43 min
Overall bit rate mode                    : Variable
Overall bit rate                         : 2 169 kb/s
Movie name                               : The.Quake.720p.WEB-DL.H264.AC3-EVO[EtHD]
Encoded date                             : UTC 2019-01-11 16:27:44
Writing application                      : DVDFab 10.2.0.7
Writing library                          : libebml v1.3.4 + libmatroska v1.4.5

Video
ID                                       : 1
Format                                   : AVC
Format/Info                              : Advanced Video Codec
Format profile                           : High@L4.1
Format settings                          : CABAC / 1 Ref Frames
Format settings, CABAC                   : Yes
Format settings, RefFrames               : 1 frame
Format settings, GOP                     : M=1, N=25
Codec ID                                 : V_MPEG4/ISO/AVC
Duration                                 : 1 h 43 min
Bit rate mode                            : Variable
Bit rate                                 : 1 719 kb/s
Maximum bit rate                         : 2 145 kb/s
Width                                    : 1 280 pixels
Height                                   : 536 pixels
Display aspect ratio                     : 2.40:1
Frame rate mode                          : Constant
Frame rate                               : 25.000 FPS
Color space                              : YUV
Chroma subsampling                       : 4:2:0
Bit depth                                : 8 bits
Scan type                                : Progressive
Bits/(Pixel*Frame)                       : 0.100
Stream size                              : 1.24 GiB (79%)
Default                                  : Yes
Forced                                   : No
Color range                              : Limited
Color primaries                          : BT.709
Transfer characteristics                 : BT.709
Matrix coefficients                      : BT.709

Audio
ID                                       : 2
Format                                   : AC-3
Format/Info                              : Audio Coding 3
Codec ID                                 : A_AC3
Duration                                 : 1 h 43 min
Bit rate mode                            : Constant
Bit rate                                 : 448 kb/s
Channel(s)                               : 6 channels
Channel positions                        : Front: L C R, Side: L R, LFE
Sampling rate                            : 48.0 kHz
Frame rate                               : 31.250 FPS (1536 SPF)
Bit depth                                : 16 bits
Compression mode                         : Lossy
Stream size                              : 332 MiB (21%)
Language                                 : Norwegian
Service kind                             : Complete Main
Default                                  : Yes
Forced                                   : No

Menu
00:00:00.000                             : en:Chapter 1
00:15:00.000                             : en:Chapter 2
00:30:00.000                             : en:Chapter 3
00:45:00.000                             : en:Chapter 4
01:00:00.000                             : en:Chapter 5
01:15:00.000                             : en:Chapter 6
01:30:00.000                             : en:Chapter 7
01:38:04.000                             : en:Chapter 8

 

Komentáře

Komentáře

Celkem komentářů: 0 (Přihlašte se pro jejich zobrazení)

Lego

Konec stránky

Domů | Torrenty | Podpora | Statistika | Pravidla | FAQ | Uživatelé | Fórum | IRC