CzTorrent - 1. CZ Free Torrent Tracker - The OA - 2. série [WebRip][HEVC][720p]

Menu

Statistika

Uživatelé Torrenty Seedeři Leecheři Peery Seed/Leech Přenesená data
346686 | 346732 118121 | 122208 1065819 | 1541316 25739 | 49211 1091557 | 1590355 4141% 1472.363 PiB

Login

Bitcoin Exchange CEX.IO

Obsah

Detaily torrentu

Detaily torrentu
Název:
The OA - 2. série [WebRip][HEVC][720p]
Kategorie:
Seriály
Přidán:
15.5.2019 16:54:49
Zkontrolován:
15.5.2019 17:03:34
Zdraví 100%
Provozovatel serveru nenese žádnou zodpovědnost za nahrané soubory. Odpovědnost nese vždy uploader souboru.
Jazyk: English
Titulky: České
Odkaz na CSFD: https://www.csfd.cz/film/475170-the-oa/prehled/
Rok vydání: 2019
Délka: minutáž: 8 x cca 43 - 71 min.

Obal:image

Žánr: Drama / Mysteriózní

Screen:thumbthumb

Prairie Johnson (Brit Marling) je mladá žena, která se po 7 letech, kdy byla pohřešovaná, náhle objeví zpět v malém městě, kde vyrůstala. Její tělo je pokryto jizvami a nepoznává ani svoje rodiče. Prairie byla totiž v době svého zmizení slepá. Ačkoli se od ní její rodina i FBI snaží získat informace, kde celou dobu byla a co se vlastně stalo, Prairie se svůj dechberoucí příběh rozhodne vyprávět pouze pěti lidem, které si sama vybrala. Ti se spolu původně ani nepřátelí, ale jak se časem ukáže, rozhodně je nespojuje jen status outsidera.

Epizody:
The OA S01E01 Angel of Death
The OA S01E02 Treasure Island  
The OA S01E03 Magic Mirror
The OA S01E04 SYZYGY
The OA S01E05 The Medium & The Engineer
The OA S01E06 Mirror Mirror
The OA S01E07 Nina Azarova
The OA S01E08 Overwiev

General
Unique ID                                : 160178142346982115808037280456699284770 (0x78813025E536BA813D024208B6200D22)
Complete name                            : D:\UPLOAD\The.OA.S02.720p.10bit.WEBRip.2CH.x265.HEVC-PSA\The.OA.S02E01.Angel.of.Death.720p.10bit.WEBRip.2CH.x265.HEVC-PSA.mkv
Format                                   : Matroska
Format version                           : Version 4 / Version 2
File size                                : 295 MiB
Duration                                 : 1 h 8 min
Overall bit rate                         : 600 kb/s
Movie name                               : PSArips.com | The.OA.S02E01.Angel.of.Death.720p.10bit.WEBRip.2CH.x265.HEVC-PSA
Encoded date                             : UTC 2019-03-22 11:56:41
Writing application                      : mkvmerge v32.0.0 ('Astral Progressions') 64-bit
Writing library                          : libebml v1.3.7 + libmatroska v1.5.0

Video
ID                                       : 1
Format                                   : HEVC
Format/Info                              : High Efficiency Video Coding
Format profile                           : Main 10@L3.1@Main
Codec ID                                 : V_MPEGH/ISO/HEVC
Duration                                 : 1 h 8 min
Bit rate                                 : 531 kb/s
Width                                    : 1 280 pixels
Height                                   : 592 pixels
Display aspect ratio                     : 2.2:1
Frame rate mode                          : Constant
Frame rate                               : 23.976 (24000/1001) FPS
Color space                              : YUV
Chroma subsampling                       : 4:2:0
Bit depth                                : 10 bits
Bits/(Pixel*Frame)                       : 0.029
Stream size                              : 261 MiB (88%)
Default                                  : Yes
Forced                                   : No

Audio
ID                                       : 2
Format                                   : AAC
Format/Info                              : Advanced Audio Codec
Format profile                           : HE-AAC / LC
Format settings                          : Explicit
Codec ID                                 : A_AAC-2
Duration                                 : 1 h 8 min
Bit rate                                 : 66.2 kb/s
Channel(s)                               : 2 channels
Channel positions                        : Front: L R
Sampling rate                            : 48.0 kHz / 24.0 kHz
Frame rate                               : 23.438 FPS (1024 SPF)
Compression mode                         : Lossy
Delay relative to video                  : 23 ms
Stream size                              : 32.5 MiB (11%)
Language                                 : English
Default                                  : Yes
Forced                                   : No

 

Komentáře

Komentáře

Celkem komentářů: 3 (Přihlašte se pro jejich zobrazení)

Lego

Konec stránky

Domů | Torrenty | Podpora | Statistika | Pravidla | FAQ | Uživatelé | Fórum | IRC