CzTorrent - 1. CZ Free Torrent Tracker - X-Men: Dark Phoenix (2019)(CZ)[CAM]

Menu

Statistika

Uživatelé Torrenty Seedeři Leecheři Peery Seed/Leech Přenesená data
344711 | 344816 117952 | 122208 879069 | 1541316 18651 | 49211 897726 | 1590355 4713% 1455.906 PiB

Login

Bitcoin Exchange CEX.IO

Obsah

Detaily torrentu

Detaily torrentu
Název:
X-Men: Dark Phoenix (2019)(CZ)[CAM]
Kategorie:
Filmy
Přidán:
13.7.2019 20:47:36
Zkontrolován:
13.7.2019 21:28:22
Zdraví 100%
Provozovatel serveru nenese žádnou zodpovědnost za nahrané soubory. Odpovědnost nese vždy uploader souboru.

X-Men: Dark Phoenix
image


Jazyk: český - z kina
Titulky: Ne
Délka: 1h 44mn
Rok vydání: 2019
Žánr: Akční / Dobrodružný / Sci-Fi


Když skupina X-Menů vyrazí na celkem rutinní záchrannou misi na oběžné dráze k ohrožené posádce raketoplánu, zdá se, že mají vše pod kontrolou a operace probíhá zdárně. Ale zdání klame. Jean Grey (Sophie Turner) je zasažena neznámou a smrtící kosmickou silou, která ji promění v jednoho z nejsilnějších mutantů. I s podporou ostatních X-Menů Jean zápasí nejen se svou nově nabitou a nestabilní silou, ale i se svými osobními démony. Postupně se dostává do děsivé spirály a ztrácí nad sebou kontrolu. Navíc její myšlení začíná ovlivňovat tajemná postava (Jessica Chastain), která přichází s nebezpečnými návrhy na využití její ničivé síly. Grey se mění v Dark Phoenix a stává se hrozbou nejen pro své nyní již bývalé přátele z řad mutantů, ale pro celou planetu. X-Meni tak musí čelit svému nejbližšímu i nejničivějšímu nepříteli – jednomu z nich.


image


thumb
thumb



General
Complete name: C:\Users\Desktop\X-Men - Dark Phoenix\X-Men - Dark Phoenix.avi
Format: AVI
Format/Info: Audio Video Interleave
File size: 928 MiB
Duration: 1h 44mn
Overall bit rate: 1 238 Kbps
Writing application: Lavf52.33.0
Original source form/Name: Desktop

Video
ID: 0
Format: MPEG-4 Visual
Format profile: Simple@L3
Format settings, BVOP: No
Format settings, QPel: No
Format settings, GMC: No warppoints
Format settings, Matrix: Default (H.263)
Codec ID: XVID
Codec ID/Hint: XviD
Duration: 1h 44mn
Bit rate: 1 097 Kbps
Width: 704 pixels
Height: 312 pixels
Display aspect ratio: 2.25:1
Frame rate: 25.000 fps
Color space: YUV
Chroma subsampling: 4:2:0
Bit depth: 8 bits
Scan type: Progressive
Compression mode: Lossy
Bits/(Pixel*Frame): 0.200
Stream size: 823 MiB (89%)
Writing library: XviD 1.2.1 (UTC 2008-12-04)

Audio
ID: 1
Format: MPEG Audio
Format version: Version 1
Format profile: Layer 3
Mode: Joint stereo
Mode extension: MS Stereo
Codec ID: 55
Codec ID/Hint: MP3
Duration: 1h 44mn
Bit rate mode: Constant
Bit rate: 128 Kbps
Channel(s): 2 channels
Sampling rate: 48.0 KHz
Compression mode: Lossy
Stream size: 96.0 MiB (10%)
Alignment: Aligned on interleaves
Interleave, duration: 24 ms (0.60 video frame)


 

Komentáře

Komentáře

Celkem komentářů: 4 (Přihlašte se pro jejich zobrazení)

Lego

Konec stránky

Domů | Torrenty | Podpora | Statistika | Pravidla | FAQ | Uživatelé | Fórum | IRC